<svg xmlns="http://www.w3.org/2000/svg">
<defs>
<font id="47d52c266812468e40401312d675e9ac" horiz-adv-x='1024' >
  <font-face 
    font-family="GTWalsheimLight-Oblique"
    font-weight="350"
    font-style="oblique"
    font-stretch="normal"
    units-per-em="1000"
    panose-1="2 0 5 3 3 0 0 9 0 3"
    ascent="730"
    descent="-270"
    x-height="443"
    cap-height="700"
    bbox="-140 -328 1195.86 976"
    underline-thickness="50"
    underline-position="-50"
    slope="-6"
    unicode-range="U+000D-FB04"
  />
<missing-glyph horiz-adv-x="800" 
d="M473 717q80 0 141 -27.5t102.5 -73t63 -105.5t21.5 -125q0 -77 -29 -150t-81.5 -129t-126 -90t-162.5 -34q-80 0 -141.5 27.5t-103 73t-63 105.5t-21.5 125q0 77 29 149.5t82 129t126.5 90.5t162.5 34zM473 695q-42 0 -79 -8t-67 -21t-59 -32t-55 -44
q-25 -24 -44.5 -52.5t-33.5 -57.5q-17 -35 -25.5 -66.5t-12.5 -63.5q-7 -66 11 -129q8 -32 22 -59.5t33 -50.5q20 -24 43.5 -43t54.5 -33q64 -29 140 -29t145 29q34 14 61 32.5t53 43.5q49 48 79 110q15 31 27 67.5t12 92.5q0 26 -3 51t-9 48q-8 29 -22 57t-34 53
q-40 48 -98 76q-63 29 -139 29zM192 228q12 -8 31 -20t42.5 -23.5t51 -19.5t56.5 -8q42 4 82 8q34 4 70 8t62 7q-18 -23 -41.5 -44.5t-61.5 -39.5q-30 -14 -60 -22t-53 -8q-47 0 -91.5 37.5t-87.5 124.5zM247 259l207 268l-136 -243h178l-2 -25h-247zM248 169q12 -21 29 -36
t36 -24t36.5 -13t31.5 -4q22 0 49 9t51 20t41.5 21t21.5 13q-35 -7 -78.5 -15t-87.5 -8q-15 0 -33.5 1.5t-36 5.5t-33.5 11.5t-27 18.5zM254 496q0 20 14 33.5t32 13.5q17 0 28 -11t11 -28q0 -19 -14 -33t-33 -14q-17 0 -27.5 11.5t-10.5 27.5zM551 496q0 20 14 33.5
t32 13.5q17 0 28 -11t11 -28q0 -19 -14 -33t-33 -14q-17 0 -27.5 11.5t-10.5 27.5zM617 161q4 9 4 18q0 7 -2 13q-2 5 -3 5q-2 2 -1.5 1.5t-1.5 0.5q-3 1 -2.5 1t-1.5 1l-13 5q-7 4 -15 8t-16 11q-11 9 -16 20l-2 11q-2 7 -2.5 8t0.5 6q-1 8 -1.5 15.5t0.5 15.5q2 5 2.5 10
t2.5 9l14 -5q0 -2 -1 -4.5t-1 -5.5l-1 -13q0 -7 -0.5 -14t1.5 -13q1 -2 1.5 -6t2.5 -6q2 -6 7.5 -12t9.5 -8q8 -5 15.5 -8t9.5 -5l14 -6q2 -1 3 -2l3 -3q6 -5 5.5 -5.5t1.5 -3.5q3 -9 3 -19q0 -13 -4 -24zM248 331q-1 -5 -0.5 -10t0.5 -10v-12q0 -8 -2.5 -16t-6.5 -13

<glyph glyph-name="IJ" unicode="IJ" horiz-adv-x="772" 
d="M722 216q-5 -51 -25.5 -93.5t-52.5 -73t-74.5 -47.5t-92.5 -17t-90 17t-67 47.5t-39 73.5t-6 94h68q-4 -41 5 -72.5t28 -53t47 -33t61 -11.5q69 0 115 45.5t54 123.5l51 484h69zM157 700h70l-74 -700h-70z" />
    <glyph glyph-name="ij" unicode="ij" horiz-adv-x="461" 
d="M130 443h65l-47 -443h-65zM120 611q0 27 20 46.5t46 19.5q24 0 39.5 -16t15.5 -39q0 -27 -20 -46t-47 -19q-23 0 -38.5 15.5t-15.5 38.5zM364 -135q-8 -69 -39 -99.5t-79 -30.5q-13 0 -33 2.5t-34 9.5l6 57q15 -6 24.5 -8.5t20.5 -2.5q61 0 69 76l60 574h66zM350 611
q0 27 20 46.5t46 19.5q24 0 39.5 -16t15.5 -39q0 -27 -20 -46t-47 -19q-23 0 -38.5 15.5t-15.5 38.5z" />
    <glyph glyph-name="uniFB00" unicode="ff" horiz-adv-x="670" 
d="M393 638q-11 5 -23 7t-30 2q-15 0 -30 -2.5t-28 -12.5t-22.5 -30t-13.5 -54l-11 -105h138l-6 -56h-138l-41 -387h-65l41 387h-101l6 56h101l10 99q6 55 23 87.5t39.5 49.5t48 22t47.5 5q23 0 37 -3.5t24 -8.5zM728 638q-11 5 -23 7t-30 2q-15 0 -30 -2.5t-28 -12.5
t-22.5 -30t-13.5 -54l-11 -105h138l-6 -56h-138l-41 -387h-65l41 387h-101l6 56h101l10 99q6 55 23 87.5t39.5 49.5t48 22t47.5 5q23 0 37 -3.5t24 -8.5z" />
    <glyph glyph-name="fi" unicode="fi" horiz-adv-x="588" 
d="M393 638q-11 5 -23 7t-30 2q-15 0 -30 -2.5t-28 -12.5t-22.5 -30t-13.5 -54l-11 -105h138l-6 -56h-138l-41 -387h-65l41 387h-101l6 56h101l10 99q6 55 23 87.5t39.5 49.5t48 22t47.5 5q23 0 37 -3.5t24 -8.5zM476 443h65l-47 -443h-65zM469 611q0 26 18.5 44.5
t44.5 18.5q23 0 38 -15t15 -38q0 -26 -19 -44t-45 -18q-23 0 -37.5 15t-14.5 37z" />
    <glyph glyph-name="fl" unicode="fl" horiz-adv-x="566" 
d="M393 638q-11 5 -23 7t-30 2q-15 0 -30 -2.5t-28 -12.5t-22.5 -30t-13.5 -54l-11 -105h138l-6 -56h-138l-41 -387h-65l41 387h-101l6 56h101l10 99q6 55 23 87.5t39.5 49.5t48 22t47.5 5q23 0 37 -3.5t24 -8.5zM492 700h65l-74 -700h-65z" />
    <glyph glyph-name="uniFB03" unicode="ffi" horiz-adv-x="923" 
d="M393 638q-11 5 -23 7t-30 2q-15 0 -30 -2.5t-28 -12.5t-22.5 -30t-13.5 -54l-11 -105h138l-6 -56h-138l-41 -387h-65l41 387h-101l6 56h101l10 99q6 55 23 87.5t39.5 49.5t48 22t47.5 5q23 0 37 -3.5t24 -8.5zM728 638q-11 5 -23 7t-30 2q-15 0 -30 -2.5t-28 -12.5
t-22.5 -30t-13.5 -54l-11 -105h138l-6 -56h-138l-41 -387h-65l41 387h-101l6 56h101l10 99q6 55 23 87.5t39.5 49.5t48 22t47.5 5q23 0 37 -3.5t24 -8.5zM811 443h65l-47 -443h-65zM802 611q0 27 19.5 46.5t45.5 19.5q24 0 39.5 -16t15.5 -39q0 -27 -20 -46t-47 -19
q-23 0 -38 15.5t-15 38.5z" />
    <glyph glyph-name="uniFB04" unicode="ffl" horiz-adv-x="899" 
d="M393 638q-11 5 -23 7t-30 2q-15 0 -30 -2.5t-28 -12.5t-22.5 -30t-13.5 -54l-11 -105h138l-6 -56h-138l-41 -387h-65l41 387h-101l6 56h101l10 99q6 55 23 87.5t39.5 49.5t48 22t47.5 5q23 0 37 -3.5t24 -8.5zM728 638q-11 5 -23 7t-30 2q-15 0 -30 -2.5t-28 -12.5
t-22.5 -30t-13.5 -54l-11 -105h138l-6 -56h-138l-41 -387h-65l41 387h-101l6 56h101l10 99q6 55 23 87.5t39.5 49.5t48 22t47.5 5q23 0 37 -3.5t24 -8.5zM827 700h65l-74 -700h-65z" />
    <glyph glyph-name=".notdef" horiz-adv-x="800" 
d="M473 717q80 0 141 -27.5t102.5 -73t63 -105.5t21.5 -125q0 -77 -29 -150t-81.5 -129t-126 -90t-162.5 -34q-80 0 -141.5 27.5t-103 73t-63 105.5t-21.5 125q0 77 29 149.5t82 129t126.5 90.5t162.5 34zM473 695q-42 0 -79 -8t-67 -21t-59 -32t-55 -44
q-25 -24 -44.5 -52.5t-33.5 -57.5q-17 -35 -25.5 -66.5t-12.5 -63.5q-7 -66 11 -129q8 -32 22 -59.5t33 -50.5q20 -24 43.5 -43t54.5 -33q64 -29 140 -29t145 29q34 14 61 32.5t53 43.5q49 48 79 110q15 31 27 67.5t12 92.5q0 26 -3 51t-9 48q-8 29 -22 57t-34 53
q-40 48 -98 76q-63 29 -139 29zM192 228q12 -8 31 -20t42.5 -23.5t51 -19.5t56.5 -8q42 4 82 8q34 4 70 8t62 7q-18 -23 -41.5 -44.5t-61.5 -39.5q-30 -14 -60 -22t-53 -8q-47 0 -91.5 37.5t-87.5 124.5zM247 259l207 268l-136 -243h178l-2 -25h-247zM248 169q12 -21 29 -36
t36 -24t36.5 -13t31.5 -4q22 0 49 9t51 20t41.5 21t21.5 13q-35 -7 -78.5 -15t-87.5 -8q-15 0 -33.5 1.5t-36 5.5t-33.5 11.5t-27 18.5zM254 496q0 20 14 33.5t32 13.5q17 0 28 -11t11 -28q0 -19 -14 -33t-33 -14q-17 0 -27.5 11.5t-10.5 27.5zM551 496q0 20 14 33.5
t32 13.5q17 0 28 -11t11 -28q0 -19 -14 -33t-33 -14q-17 0 -27.5 11.5t-10.5 27.5zM617 161q4 9 4 18q0 7 -2 13q-2 5 -3 5q-2 2 -1.5 1.5t-1.5 0.5q-3 1 -2.5 1t-1.5 1l-13 5q-7 4 -15 8t-16 11q-11 9 -16 20l-2 11q-2 7 -2.5 8t0.5 6q-1 8 -1.5 15.5t0.5 15.5q2 5 2.5 10
t2.5 9l14 -5q0 -2 -1 -4.5t-1 -5.5l-1 -13q0 -7 -0.5 -14t1.5 -13q1 -2 1.5 -6t2.5 -6q2 -6 7.5 -12t9.5 -8q8 -5 15.5 -8t9.5 -5l14 -6q2 -1 3 -2l3 -3q6 -5 5.5 -5.5t1.5 -3.5q3 -9 3 -19q0 -13 -4 -24zM248 331q-1 -5 -0.5 -10t0.5 -10v-12q0 -8 -2.5 -16t-6.5 -13
q-2 -5 -15 -11q-4 -2 -5 -2q-5 -2 -11 -4.5t-11 -5.5q-4 -1 -10 -5q-2 -1 -3 -2t-4 -3q-4 -7 -6 -13l-4 -17h-16q1 5 1.5 10t2.5 10q4 13 11 20q4 4 6 5t5 3l11 7q4 2 11.5 5t13.5 5l1 1q5 2 10 8q5 5 5 16v12l-1 20zM600 196q1 1 -0.5 -7t-2.5 -8q-3 -1 -10 -1q7 7 13 16z
" />
    <glyph glyph-name=".null" horiz-adv-x="0" 
 />
    <glyph glyph-name=".null" horiz-adv-x="0" 
 />
    <glyph glyph-name="nonmarkingreturn" unicode="&#xd;" horiz-adv-x="250" 
 />
    <glyph glyph-name="space" unicode=" " horiz-adv-x="255" 
 />
    <glyph glyph-name="exclam" unicode="!" horiz-adv-x="283" 
d="M180 708h71l-53 -505h-71zM85 45q0 28 20.5 48t47.5 20q25 0 41 -16.5t16 -39.5q0 -28 -21 -48t-48 -20q-25 0 -40.5 16.5t-15.5 39.5z" />
    <glyph glyph-name="quotedbl" unicode="&#x22;" horiz-adv-x="320" 
d="M130 666l5 51h62l-5 -51l-34 -200h-36zM268 666l5 51h62l-5 -51l-34 -200h-36z" />
    <glyph glyph-name="numbersign" unicode="#" horiz-adv-x="550" 
d="M358 214h-150l-52 -214h-55l52 214h-102l5 52h109l41 168h-102l6 52h110l51 214h55l-51 -214h150l51 214h55l-51 -214h92l-6 -52h-100l-41 -168h93l-5 -52h-100l-52 -214h-55zM220 266h150l41 168h-150z" />
    <glyph glyph-name="dollar" unicode="$" horiz-adv-x="572" 
d="M411 713q87 -8 133.5 -62.5t38.5 -145.5h-69q3 32 -3 59.5t-22.5 47t-43.5 30.5t-66 11q-36 0 -66 -9.5t-51.5 -27.5t-33.5 -42.5t-12 -54.5q0 -31 12 -51.5t32 -34.5t45.5 -23.5t53.5 -16.5q39 -11 76 -24.5t66.5 -34.5t47 -52.5t17.5 -79.5q0 -45 -16.5 -83t-47 -66
t-73.5 -45.5t-95 -21.5l-10 -101h-52l10 101q-48 4 -85.5 22t-63 48t-37 71t-6.5 90h68q-8 -81 37 -125.5t126 -44.5q39 0 71 10.5t55.5 29t36.5 45.5t13 60t-12 54.5t-32 36t-45 23.5t-52 16q-42 12 -80 25.5t-66.5 34t-45.5 50.5t-17 76q0 83 55.5 139.5t156.5 66.5
l11 101h52z" />
    <glyph glyph-name="percent" unicode="%" horiz-adv-x="883" 
d="M828 118q-3 -26 -15 -48.5t-31.5 -40t-45.5 -27.5t-56 -10q-31 0 -55 10.5t-39.5 28.5t-22.5 41.5t-4 49.5l15 144q3 25 15 48t31.5 40.5t45.5 27.5t56 10q31 0 55 -10.5t39.5 -28.5t23 -41.5t4.5 -49.5zM614 122q-4 -34 15 -58.5t56 -24.5t61 24.5t28 58.5l15 140
q4 34 -15.5 58.5t-56.5 24.5t-60.5 -24.5t-27.5 -58.5zM112 437l15 143q3 26 14.5 49t31 40.5t45.5 27.5t56 10q31 0 55 -10.5t40 -28.5t23.5 -41.5t4.5 -50.5l-15 -143q-3 -26 -15 -49t-32 -40t-46 -27t-57 -10t-54.5 10.5t-39 28t-22.5 41t-4 50.5zM342 576q2 16 -2 31
t-13 27t-23.5 19t-33.5 7q-20 0 -35.5 -7.5t-26.5 -19.5t-18 -27t-8 -30l-15 -139q-4 -33 14.5 -58.5t56.5 -25.5q37 0 61 25t28 59zM715 752l49 -31l-516 -753l-49 31z" />
    <glyph glyph-name="ampersand" unicode="&#x26;" horiz-adv-x="599" 
d="M382 296h227l-7 -62h-66q-6 -54 -26.5 -99t-53.5 -77.5t-77 -50.5t-98 -18q-45 0 -84 13t-67.5 37.5t-44.5 59.5t-16 78q0 72 42.5 119t111.5 67q-51 16 -79 51.5t-28 91.5q0 46 18.5 83.5t51 64.5t75.5 42t91 15q49 0 87.5 -15t64 -42t37 -64t6.5 -80h-69
q7 62 -26.5 100t-106.5 38q-72 0 -115.5 -37t-43.5 -101q0 -51 32 -83.5t104 -32.5h29l-6 -61h-29q-44 0 -77.5 -12t-56 -33t-34 -48.5t-11.5 -57.5q0 -57 39 -93.5t109 -36.5q82 0 127.5 50t54.5 132h-92z" />
    <glyph glyph-name="quotesingle" unicode="'" horiz-adv-x="182" 
d="M130 666l5 51h62l-5 -51l-34 -200h-36z" />
    <glyph glyph-name="parenleft" unicode="(" horiz-adv-x="346" 
d="M408 732q-37 0 -68.5 -13.5t-55.5 -36.5t-39 -54t-19 -66l-60 -570q-4 -35 4.5 -65.5t27.5 -53.5t48 -36.5t66 -13.5l-6 -63q-53 0 -93.5 18.5t-67.5 50.5t-39.5 74t-7.5 89l60 570q5 47 26 89.5t54.5 74t78 50t97.5 18.5z" />
    <glyph glyph-name="parenright" unicode=")" horiz-adv-x="346" 
d="M99 794q53 0 93.5 -18.5t67.5 -50t39 -74t7 -89.5l-60 -570q-5 -47 -25.5 -89t-54.5 -74t-78.5 -50.5t-97.5 -18.5l7 63q37 0 69 13.5t55.5 36.5t38 53.5t18.5 65.5l60 570q4 35 -4.5 66t-27.5 54t-48 36.5t-66 13.5z" />
    <glyph glyph-name="asterisk" unicode="*" horiz-adv-x="454" 
d="M138 393l119 133l-149 43l19 44l144 -58l9 162h47l-25 -162l155 58l10 -44l-160 -43l93 -133l-44 -29l-75 141l-107 -141z" />
    <glyph glyph-name="plus" unicode="+" 
d="M261 88l18 167h-164l6 59h164l18 168h65l-18 -168h165l-6 -59h-165l-18 -167h-65z" />
    <glyph glyph-name="comma" unicode="," horiz-adv-x="250" 
d="M60 49q0 27 20 46.5t51 19.5q32 0 49.5 -24t17.5 -69q0 -68 -39.5 -103t-108.5 -35l4 36q58 0 75 41q8 14 9 24t2 18q-10 -8 -27 -8q-24 0 -38.5 15.5t-14.5 38.5z" />
    <glyph glyph-name="hyphen" unicode="-" horiz-adv-x="294" 
d="M291 255h-234l6 59h234z" />
    <glyph glyph-name="period" unicode="." horiz-adv-x="230" 
d="M60 50q0 27 20 46t46 19q24 0 39.5 -16t15.5 -39q0 -26 -20 -45.5t-47 -19.5q-24 0 -39 16t-15 39z" />
    <glyph glyph-name="slash" unicode="/" horiz-adv-x="420" 
d="M458 799l57 -26l-453 -845l-57 25z" />
    <glyph glyph-name="zero" unicode="0" horiz-adv-x="578" 
d="M107 480q5 47 25.5 89.5t54.5 74t78.5 50t97.5 18.5t94.5 -18.5t68.5 -50t39.5 -74t7.5 -89.5l-28 -261q-5 -47 -26 -89t-54.5 -73.5t-78.5 -50t-98 -18.5t-94.5 18.5t-68.5 50t-39 73.5t-7 89zM504 480q4 35 -4.5 66t-28 54t-48.5 36.5t-67 13.5t-69.5 -13.5t-55 -36.5
t-38 -54t-18.5 -66l-28 -261q-4 -35 4.5 -65.5t27.5 -53.5t47.5 -36.5t66.5 -13.5t70 13.5t56 36.5t38.5 53.5t18.5 65.5z" />
    <glyph glyph-name="one" unicode="1" horiz-adv-x="325" 
d="M93 584q46 0 75 6.5t46 20t25 35.5t11 54h65l-73 -700h-70l55 528h-140z" />
    <glyph glyph-name="two" unicode="2" horiz-adv-x="526" 
d="M47 0q9 82 27.5 138t48.5 94.5t71.5 64t95.5 48.5q33 13 64.5 28t57 36t41 49.5t15.5 68.5q0 58 -34 89.5t-95 31.5q-72 0 -118 -42t-54 -114h-68q5 48 25.5 88.5t53 69.5t75.5 45t93 16q88 0 139 -47t51 -130q0 -55 -22 -95t-54.5 -68.5t-70 -47t-68.5 -30.5
q-51 -23 -85.5 -45t-56.5 -48t-33 -59.5t-15 -78.5h360l-7 -62h-437v0z" />
    <glyph glyph-name="three" unicode="3" horiz-adv-x="549" 
d="M123 208q-4 -36 5.5 -64.5t29.5 -49t49.5 -31.5t66.5 -11q39 0 70.5 12t54 33t35 49t12.5 61q0 54 -35.5 90t-108.5 36h-53l7 61h53q39 0 69 11t50 29.5t30 44t10 54.5q0 57 -36 86t-98 29q-38 0 -67 -10.5t-49 -29.5t-31.5 -44t-14.5 -54h-68q5 46 24.5 83t51 63.5
t72 40.5t87.5 14q43 0 79.5 -12t62.5 -34.5t40.5 -54.5t14.5 -72q0 -66 -37.5 -112.5t-102.5 -62.5q55 -14 87 -53t32 -101q0 -48 -20 -88.5t-54 -69.5t-79.5 -45.5t-97.5 -16.5q-49 0 -90 15t-69 43.5t-41.5 69t-8.5 91.5h68z" />
    <glyph glyph-name="four" unicode="4" horiz-adv-x="546" 
d="M361 240h-266l48 460h68l-41 -398h198l23 221h68l-23 -221h114l-7 -62h-114l-25 -240h-68z" />
    <glyph glyph-name="five" unicode="5" horiz-adv-x="590" 
d="M158 700h400l-6 -62h-337l-29 -273q26 41 74.5 63t101.5 22q47 0 83.5 -16t62 -43.5t39 -65t13.5 -79.5q0 -52 -19 -98.5t-53.5 -82t-82 -56t-103.5 -20.5q-54 0 -95 18.5t-68.5 50.5t-39.5 74t-7 89h69q-4 -35 4.5 -65.5t27 -53.5t48 -36.5t67.5 -13.5q40 0 73.5 15
t58 40.5t38 59t13.5 70.5q0 31 -10 59t-29 48.5t-47 32.5t-64 12q-48 0 -87.5 -22.5t-65.5 -68.5h-72z" />
    <glyph glyph-name="six" unicode="6" horiz-adv-x="543" 
d="M270 -11q-50 0 -89 17t-66 45.5t-41.5 66.5t-14.5 81q0 45 14.5 82.5t39.5 72.5l251 346h80l-201 -269q14 12 34.5 17t44.5 5q47 0 85 -16.5t65 -45t41.5 -67t14.5 -81.5q0 -51 -19.5 -97t-54 -81t-82 -55.5t-102.5 -20.5zM276 52q40 0 73.5 15t58 40.5t38 59t13.5 70.5
q0 31 -10 59t-29 49t-47 33.5t-63 12.5q-40 0 -73.5 -15t-58 -40.5t-38 -59.5t-13.5 -71q0 -32 10 -59.5t29 -48.5t47 -33t63 -12z" />
    <glyph glyph-name="seven" unicode="7" horiz-adv-x="454" 
d="M533 700l-397 -700h-73l365 638h-323l7 62h421z" />
    <glyph glyph-name="eight" unicode="8" horiz-adv-x="571" 
d="M285 -11q-50 0 -89.5 14t-66.5 39t-41 59t-14 73q0 32 9.5 62.5t28.5 56t47 44.5t64 27q-53 15 -76.5 53.5t-23.5 86.5q0 43 17 81t48 66t74.5 44t96.5 16q48 0 85 -13.5t62.5 -37t38.5 -55t13 -68.5q0 -29 -8 -56t-24.5 -50t-42 -40.5t-59.5 -26.5q30 -7 51.5 -23
t35 -37t20 -45.5t6.5 -49.5q0 -44 -18 -84t-51 -70t-79.5 -48t-103.5 -18zM327 388q37 0 67 11t51 30t32.5 45t11.5 55q0 51 -35 85t-101 34q-36 0 -65.5 -11t-51 -30.5t-33 -45.5t-11.5 -56q0 -51 34.5 -84t100.5 -33zM291 52q40 0 73 12t56 33t36 48.5t13 59.5
q0 27 -9.5 50t-28.5 40t-47 27t-65 10q-40 0 -72.5 -12t-56 -32.5t-36 -48.5t-12.5 -59q0 -57 39.5 -92.5t109.5 -35.5z" />
    <glyph glyph-name="nine" unicode="9" horiz-adv-x="543" 
d="M347 711q50 0 89 -17t66 -45.5t41.5 -66.5t14.5 -80q0 -45 -15 -83t-40 -73l-251 -346h-79l200 269q-22 -22 -72 -22q-47 0 -86 16t-67 44t-43.5 66.5t-15.5 83.5q0 51 19.5 97t54 81t81.5 55.5t103 20.5zM341 648q-40 0 -73.5 -15t-58 -40.5t-38.5 -59t-14 -70.5
q0 -32 10 -60t29.5 -49t47.5 -33t63 -12q40 0 73.5 15t58 40.5t38 59.5t13.5 71q0 31 -10 59t-29 49t-47 33t-63 12z" />
    <glyph glyph-name="colon" unicode=":" horiz-adv-x="230" 
d="M96 388q0 27 20 46.5t46 19.5q24 0 39.5 -16t15.5 -39q0 -27 -20.5 -46t-47.5 -19q-23 0 -38 15.5t-15 38.5zM60 49q0 27 20 46.5t46 19.5q24 0 39.5 -16t15.5 -39q0 -27 -20 -46t-47 -19q-24 0 -39 15.5t-15 38.5z" />
    <glyph glyph-name="semicolon" unicode=";" horiz-adv-x="235" 
d="M60 49q0 27 20 46.5t51 19.5q32 0 49.5 -24t17.5 -69q0 -68 -39.5 -103t-108.5 -35l4 36q58 0 75 41q8 14 9 24t2 18q-10 -8 -27 -8q-24 0 -38.5 15.5t-14.5 38.5zM96 389q0 27 20 46.5t46 19.5q24 0 39.5 -16t15.5 -39q0 -27 -20.5 -46t-46.5 -19q-24 0 -39 15.5
t-15 38.5z" />
    <glyph glyph-name="less" unicode="&#x3c;" 
d="M58 259l5 49l527 185l-7 -63l-426 -146l395 -147l-6 -63z" />
    <glyph glyph-name="equal" unicode="=" 
d="M119 338l6 59h404l-6 -59h-404zM101 170l6 59h404l-6 -59h-404z" />
    <glyph glyph-name="greater" unicode="&#x3e;" 
d="M40 74l7 63l426 147l-396 146l7 63l488 -185l-6 -49z" />
    <glyph glyph-name="question" unicode="?" horiz-adv-x="497" 
d="M210 188q4 38 13 66.5t23 50t33.5 39t46.5 33.5q16 10 36.5 23t38.5 32t30 44.5t12 59.5q0 56 -33.5 85t-92.5 29q-72 0 -119.5 -41t-55.5 -116h-68q5 49 25.5 89.5t53 69t75.5 44.5t93 16q87 0 139 -45.5t52 -126.5q0 -44 -15 -76.5t-36 -55.5t-43 -38t-36 -24
q-25 -16 -43.5 -29.5t-31 -30t-20 -40t-11.5 -58.5h-66zM167 45q0 28 20 48t48 20q25 0 40.5 -16.5t15.5 -39.5q0 -28 -20.5 -48t-48.5 -20q-25 0 -40 16.5t-15 39.5z" />
    <glyph glyph-name="at" unicode="@" horiz-adv-x="877" 
d="M585 95q-24 -42 -68 -68t-99 -26q-41 0 -74.5 15t-57 40.5t-36.5 59t-13 71.5q0 45 17.5 85.5t47.5 71.5t70.5 49.5t87.5 18.5q57 0 95 -26t53 -68l9 85h55l-32 -303q-5 -49 12 -73t47 -24q31 0 53.5 22.5t37.5 59t22 82t7 90.5q0 81 -21 138.5t-59.5 94.5t-93.5 54.5
t-123 17.5q-92 0 -168.5 -29.5t-131.5 -81t-85 -121t-30 -150.5q0 -66 21 -125t64 -103.5t108 -71t153 -26.5q48 0 111 11t127 45l18 -45q-72 -38 -140.5 -50.5t-123.5 -12.5q-101 0 -175 30.5t-122.5 82t-72.5 119t-24 141.5q0 93 35 173t98.5 139.5t151.5 93t194 33.5
q79 0 143 -20.5t109 -64t69 -110t24 -159.5q0 -55 -9.5 -110t-31.5 -99.5t-57.5 -72t-87.5 -27.5t-79 29t-29 81zM430 52q36 0 66.5 13.5t53 37t35 54t12.5 64.5q0 29 -9.5 54.5t-27 44.5t-43 30t-57.5 11q-36 0 -66.5 -14t-53 -37t-35 -54t-12.5 -65q0 -28 9 -53.5
t26.5 -44.5t43 -30t58.5 -11z" />
    <glyph glyph-name="A" unicode="A" horiz-adv-x="546" 
d="M468 0l-30 125h-304l-56 -125h-72l315 700h52l167 -700h-72zM335 591l-173 -404h262z" />
    <glyph glyph-name="B" unicode="B" horiz-adv-x="583" 
d="M157 700h239q50 0 85 -15t56.5 -39t31 -53.5t9.5 -59.5q0 -36 -12 -66.5t-32 -53.5t-46 -38.5t-54 -21.5q20 -2 40.5 -13.5t37 -31t27 -45.5t10.5 -58q0 -34 -13.5 -70t-41 -66t-70.5 -49.5t-102 -19.5h-239zM185 321l-27 -259h174q37 0 64.5 12.5t46 32.5t28 44.5
t9.5 49.5q0 21 -7 42.5t-22 39t-37 28t-52 10.5h-177zM365 383q36 0 63 13t45 33t27 45t9 49q0 21 -7 41.5t-21.5 37t-37.5 26.5t-54 10h-171l-27 -255h174z" />
    <glyph glyph-name="C" unicode="C" horiz-adv-x="775" 
d="M755 206q-19 -47 -52.5 -87.5t-78.5 -70t-100.5 -46.5t-117.5 -17q-78 0 -139 26.5t-103 72t-64 105.5t-22 127q0 76 28 148t80 128t126 89.5t167 33.5q71 0 125.5 -20t92.5 -54t59.5 -80t25.5 -97h-71q-6 40 -23.5 75t-47.5 60t-71.5 39.5t-94.5 14.5q-75 0 -135.5 -28
t-102.5 -74.5t-65 -106.5t-23 -123q0 -56 18 -106t52.5 -87.5t84 -59t112.5 -21.5q92 0 161.5 44.5t103.5 114.5h75z" />
    <glyph glyph-name="D" unicode="D" horiz-adv-x="694" 
d="M362 700q81 0 142 -27t102.5 -71t62.5 -101.5t21 -118.5q0 -71 -28 -139.5t-80 -122.5t-126.5 -87t-167.5 -33h-205l74 700h205zM218 638l-60 -576h137q75 0 135 27t102 71.5t64.5 101t22.5 115.5q0 50 -17 97t-50 83.5t-82.5 58.5t-114.5 22h-137z" />
    <glyph glyph-name="E" unicode="E" horiz-adv-x="543" 
d="M218 638l-27 -259h314l-7 -62h-314l-26 -255h314l-7 -62h-382l74 700h382l-7 -62h-314z" />
    <glyph glyph-name="F" unicode="F" horiz-adv-x="538" 
d="M218 638l-29 -277h314l-7 -62h-314l-31 -299h-68l74 700h382l-7 -62h-314z" />
    <glyph glyph-name="G" unicode="G" horiz-adv-x="833" 
d="M497 324h342l-7 -62h-74q-14 -61 -44.5 -112t-75.5 -87.5t-104 -57t-129 -20.5q-83 0 -144.5 27t-102 72t-61 104t-20.5 123q0 78 29 151t81 129t125 90t161 34q58 0 105.5 -15t83 -41.5t56.5 -62t26 -77.5h-70q-5 28 -22 52.5t-44 42.5t-63 28.5t-79 10.5
q-71 0 -130 -28t-101 -75t-65 -107.5t-23 -124.5q0 -53 16 -102t49 -86.5t83 -60t118 -22.5q57 0 103 16.5t80 45t56.5 68t33.5 85.5h-196z" />
    <glyph glyph-name="H" unicode="H" horiz-adv-x="663" 
d="M544 317h-360l-33 -317h-68l74 700h68l-34 -321h360l34 321h69l-74 -700h-69z" />
    <glyph glyph-name="I" unicode="I" horiz-adv-x="236" 
d="M157 700h70l-74 -700h-70z" />
    <glyph glyph-name="J" unicode="J" horiz-adv-x="536" 
d="M485 216q-5 -51 -25 -93.5t-52 -73t-74.5 -47.5t-92.5 -17t-90 17t-67 47.5t-39 73.5t-7 94h68q-4 -41 5 -72.5t28.5 -53t47.5 -33t61 -11.5q69 0 114.5 45.5t53.5 123.5l51 484h69z" />
    <glyph glyph-name="K" unicode="K" horiz-adv-x="574" 
d="M185 328l-34 -328h-68l74 700h68l-35 -329l361 329h88l-381 -350l307 -350h-88z" />
    <glyph glyph-name="L" unicode="L" horiz-adv-x="422" 
d="M399 62l-7 -62h-309l74 700h68l-67 -638h241z" />
    <glyph glyph-name="M" unicode="M" horiz-adv-x="810" 
d="M727 0h-68l57 541l-284 -541h-54l-170 541l-57 -541h-68l74 700h66l193 -597l319 597h66z" />
    <glyph glyph-name="N" unicode="N" horiz-adv-x="662" 
d="M522 118l62 582h69l-74 -700h-76l-291 582l-61 -582h-68l74 700h76z" />
    <glyph glyph-name="O" unicode="O" horiz-adv-x="806" 
d="M405 -15q-80 0 -141 27t-102 73t-62.5 105.5t-21.5 124.5q0 76 29 148.5t81 128t125 89.5t162 34q79 0 140.5 -27t102.5 -73t62.5 -105.5t21.5 -124.5q0 -77 -29 -149t-81 -127.5t-125.5 -89.5t-161.5 -34zM410 47q71 0 130 28t101.5 74.5t66 106.5t23.5 124
q0 54 -17 103t-50 87t-82 60.5t-113 22.5q-71 0 -130 -28t-101 -74.5t-65.5 -106.5t-23.5 -124q0 -54 17 -103t50 -87t82 -60.5t112 -22.5z" />
    <glyph glyph-name="P" unicode="P" horiz-adv-x="596" 
d="M157 700h241q49 0 88.5 -17t66.5 -45.5t41.5 -67t14.5 -81.5q0 -50 -19.5 -96t-54 -81t-82 -55.5t-104.5 -20.5h-173l-25 -236h-68zM355 298q41 0 75 15t58 41t37.5 59.5t13.5 71.5q0 31 -10 59t-29 49t-46.5 33t-62.5 12h-173l-36 -340h173z" />
    <glyph glyph-name="Q" unicode="Q" horiz-adv-x="806" 
d="M802 382q0 -73 -25 -138t-68.5 -116t-103 -85.5t-129.5 -46.5l55 -90l-64 -30l-66 109q-79 0 -139.5 28t-101 74t-61.5 105.5t-21 123.5q0 76 29 148t81.5 127.5t125.5 89.5t162 34q79 0 140 -27.5t102.5 -73t62.5 -106t21 -126.5zM410 47q71 0 130 28t101.5 74.5
t66 106.5t23.5 124q0 54 -17 103t-50 87t-82 60.5t-113 22.5q-71 0 -130 -28t-101 -74.5t-65.5 -106.5t-23.5 -124q0 -54 17 -103t50 -87t82 -60.5t112 -22.5z" />
    <glyph glyph-name="R" unicode="R" horiz-adv-x="602" 
d="M157 700h241q49 0 88.5 -17t66.5 -45.5t41.5 -66.5t14.5 -81q0 -42 -13.5 -81t-38.5 -71.5t-60 -56t-77 -34.5l131 -247h-79l-124 236h-172l-25 -236h-68zM355 298q41 0 75 15t58 41t37.5 59.5t13.5 71.5q0 31 -10 59t-29 49t-46.5 33t-62.5 12h-173l-36 -340h173z" />
    <glyph glyph-name="S" unicode="S" horiz-adv-x="572" 
d="M138 217q-8 -80 37.5 -125t126.5 -45q38 0 70 10.5t55.5 29t36.5 45.5t13 60t-12 54.5t-32 36t-45 23.5t-52 16q-41 12 -78.5 25.5t-66.5 33.5t-46 50.5t-17 76.5t17.5 84t49 65.5t74.5 42.5t95 15t91 -15t64.5 -43t36.5 -66.5t7 -85.5h-68q3 33 -4 60t-23.5 46.5
t-43.5 30.5t-66 11q-72 0 -116.5 -37t-44.5 -97q0 -31 12 -51.5t31.5 -34.5t45 -23.5t53.5 -16.5q39 -11 76 -24.5t66.5 -34.5t47 -53t17.5 -80q0 -50 -19.5 -89.5t-54 -68t-80.5 -43.5t-100 -15q-58 0 -102 17.5t-72.5 48t-40.5 73t-7 93.5h68z" />
    <glyph glyph-name="T" unicode="T" horiz-adv-x="474" 
d="M269 638h-188l7 62h446l-7 -62h-190l-67 -638h-68z" />
    <glyph glyph-name="U" unicode="U" horiz-adv-x="618" 
d="M146 700h68l-50 -480q-4 -35 4.5 -66.5t28 -55t49.5 -37.5t68 -14t70.5 14t57 37.5t39.5 55t19 66.5l50 480h68l-50 -480q-5 -48 -26 -90.5t-55 -74.5t-79.5 -51t-99.5 -19q-53 0 -94.5 18.5t-69.5 50.5t-40.5 74.5t-7.5 91.5z" />
    <glyph glyph-name="V" unicode="V" horiz-adv-x="557" 
d="M304 0h-51l-174 700h72l140 -590l263 590h72z" />
    <glyph glyph-name="W" unicode="W" horiz-adv-x="946" 
d="M535 584l-239 -584h-53l-163 700h72l129 -585l239 585h54l116 -585l252 585h72l-311 -700h-53z" />
    <glyph glyph-name="X" unicode="X" horiz-adv-x="534" 
d="M520 700h78l-255 -350l181 -350h-78l-149 290l-209 -290h-77l254 350l-180 350h77l148 -291z" />
    <glyph glyph-name="Y" unicode="Y" 
d="M209 0h-75l171 277l-222 423h79l185 -353l218 353h75z" />
    <glyph glyph-name="Z" unicode="Z" horiz-adv-x="552" 
d="M110 700h509l-481 -638h423l-7 -62h-539l481 638h-393z" />
    <glyph glyph-name="bracketleft" unicode="[" horiz-adv-x="316" 
d="M58 -234l108 1029h192l-6 -60h-127l-96 -910h127l-6 -59h-192z" />
    <glyph glyph-name="backslash" unicode="\" horiz-adv-x="420" 
d="M409 -47l-62 -25l-275 845l62 26z" />
    <glyph glyph-name="bracketright" unicode="]" horiz-adv-x="316" 
d="M16 -234l6 59h127l96 910h-127l6 59h192l-108 -1028h-192z" />
    <glyph glyph-name="asciicircum" unicode="^" horiz-adv-x="628" 
d="M529 323l-146 346l-217 -346h-72l273 427h49l186 -427h-73z" />
    <glyph glyph-name="underscore" unicode="_" horiz-adv-x="560" 
d="M20 -98l5 48h500l-5 -48h-500z" />
    <glyph glyph-name="grave" unicode="`" horiz-adv-x="419" 
d="M131 676l37 52l235 -137l-37 -52z" />
    <glyph glyph-name="a" unicode="a" horiz-adv-x="592" 
d="M556 443l-47 -443h-65l10 93q-26 -45 -74.5 -74.5t-111.5 -29.5q-46 0 -83.5 17t-64 45.5t-41 67t-14.5 81.5q0 51 19.5 96.5t53.5 80.5t80 55.5t99 20.5q66 0 106.5 -29.5t57.5 -74.5l10 94h65zM282 49q40 0 74.5 15.5t59 41.5t38.5 60t14 72q0 32 -10.5 60.5t-30 49.5
t-47.5 33.5t-64 12.5q-40 0 -74 -15.5t-59 -41.5t-39 -60t-14 -72q0 -32 10 -60.5t29.5 -49.5t48 -33.5t64.5 -12.5z" />
    <glyph glyph-name="b" unicode="b" horiz-adv-x="593" 
d="M148 0h-65l74 700h65l-37 -351q26 48 75.5 76t110.5 28q46 0 83.5 -16.5t64 -45t41 -67t14.5 -81.5q0 -51 -19.5 -97t-53 -81t-79.5 -55.5t-99 -20.5q-66 0 -107.5 30t-57.5 74zM323 49q40 0 74 15.5t59 41.5t38.5 60t13.5 72q0 32 -10 60.5t-29.5 49.5t-48 33.5
t-64.5 12.5q-41 0 -75 -15.5t-58.5 -41.5t-38.5 -60t-14 -72q0 -32 10.5 -60.5t30 -49.5t48 -33.5t64.5 -12.5z" />
    <glyph glyph-name="c" unicode="c" horiz-adv-x="524" 
d="M439 281q0 22 -6.5 42.5t-21.5 36.5t-39 25.5t-58 9.5q-45 0 -78.5 -16.5t-56 -43.5t-34 -62t-11.5 -72q0 -31 8.5 -58.5t26 -48.5t45 -33t66.5 -12q60 0 96 28.5t51 74.5h65q-9 -35 -28 -65t-47.5 -52t-65 -34t-80.5 -12q-53 0 -91 17t-63 46t-37 67t-12 79
q0 49 16.5 95t48.5 82t78.5 57.5t107.5 21.5q52 0 87.5 -15.5t57.5 -40.5t31.5 -55.5t8.5 -61.5h-65z" />
    <glyph glyph-name="d" unicode="d" horiz-adv-x="592" 
d="M454 93q-26 -45 -74.5 -74.5t-111.5 -29.5q-46 0 -83.5 17t-64 45.5t-41 67t-14.5 81.5q0 51 19.5 96.5t53.5 80.5t80 55.5t99 20.5q66 0 106.5 -29.5t57.5 -74.5l37 351h65l-74 -700h-65zM282 49q40 0 74.5 15.5t59 41.5t38.5 60t14 72q0 32 -10.5 60.5t-30 49.5
t-47.5 33.5t-64 12.5q-40 0 -74 -15.5t-59 -41.5t-39 -60t-14 -72q0 -32 10 -60.5t29.5 -49.5t48 -33.5t64.5 -12.5z" />
    <glyph glyph-name="e" unicode="e" horiz-adv-x="519" 
d="M302 402q-61 0 -106.5 -37.5t-55.5 -106.5h293q3 33 -5 59.5t-25.5 45t-43.5 29t-57 10.5zM133 207q-2 -30 3.5 -59t21.5 -51.5t43.5 -36.5t69.5 -14q57 0 91 24t49 57h66q-9 -27 -27.5 -52t-45.5 -44t-62.5 -30.5t-77.5 -11.5q-50 0 -87 16.5t-61 44.5t-36 66t-12 81
q0 54 17 100.5t48.5 81t75.5 54.5t97 20q44 0 79.5 -14t60 -38.5t38 -58t13.5 -73.5q0 -19 -2.5 -32.5t-6.5 -29.5h-355z" />
    <glyph glyph-name="f" unicode="f" horiz-adv-x="335" 
d="M393 638q-11 5 -23 7t-30 2q-15 0 -30 -2.5t-28 -12.5t-22.5 -30t-13.5 -54l-11 -105h138l-6 -56h-138l-41 -387h-65l41 387h-101l6 56h101l10 99q6 55 23 87.5t39.5 49.5t48 22t47.5 5q23 0 37 -3.5t24 -8.5z" />
    <glyph glyph-name="g" unicode="g" horiz-adv-x="590" 
d="M316 394q-41 0 -75 -15.5t-58.5 -41.5t-38.5 -60t-14 -72q0 -32 10 -60.5t29.5 -49.5t48 -33.5t64.5 -12.5q40 0 74.5 15.5t59 41.5t38.5 60t14 72q0 32 -10.5 60.5t-30 49.5t-47.5 33.5t-64 12.5zM505 -34q-7 -63 -28 -107.5t-54 -72.5t-76.5 -40.5t-94.5 -12.5
q-62 0 -103 16.5t-65.5 44.5t-34.5 65t-8 78h66q-1 -28 5.5 -54t23 -46.5t45.5 -32.5t74 -12q37 0 68.5 9.5t55.5 30t40 53.5t21 81l14 128q-27 -48 -76 -76.5t-110 -28.5q-46 0 -83.5 17t-64 45.5t-41 67t-14.5 81.5q0 51 19.5 96.5t53 80.5t79.5 55.5t99 20.5
q66 0 107 -29.5t58 -74.5l9 94h65z" />
    <glyph glyph-name="h" unicode="h" horiz-adv-x="562" 
d="M157 700h65l-38 -353q24 45 70 75.5t112 30.5q43 0 74.5 -14.5t50.5 -40.5t24 -60t0 -78l-27 -260h-65l25 241q3 33 -1 61t-17 48.5t-36 32.5t-56 12q-38 0 -67.5 -14.5t-50 -38.5t-33 -54t-15.5 -61l-24 -227h-65z" />
    <glyph glyph-name="i" unicode="i" horiz-adv-x="231" 
d="M130 443h65l-47 -443h-65zM120 611q0 27 20 46.5t46 19.5q24 0 39.5 -16t15.5 -39q0 -27 -20 -46t-47 -19q-23 0 -38.5 15.5t-15.5 38.5z" />
    <glyph glyph-name="j" unicode="j" horiz-adv-x="231" 
d="M133 -135q-8 -69 -40.5 -99.5t-80.5 -30.5q-16 0 -34 3t-29 9l6 60q15 -5 25 -7t19 -2q33 0 49.5 20t20.5 56l60 569h65zM120 611q0 27 20.5 46.5t46.5 19.5q23 0 38.5 -16t15.5 -39q0 -27 -20.5 -46t-46.5 -19q-23 0 -38.5 15.5t-15.5 38.5z" />
    <glyph glyph-name="k" unicode="k" horiz-adv-x="455" 
d="M245 221l196 -221h-85l-186 207l-22 -207h-65l74 700h65l-49 -465l230 208h85z" />
    <glyph glyph-name="l" unicode="l" horiz-adv-x="231" 
d="M157 700h65l-74 -700h-65z" />
    <glyph glyph-name="m" unicode="m" horiz-adv-x="812" 
d="M671 0l27 261q4 37 -1.5 62.5t-18 41.5t-30.5 23t-39 7q-59 0 -96.5 -46t-45.5 -124l-24 -225h-66l26 249q4 42 -1 70.5t-17 45t-30 23.5t-39 7q-60 0 -98 -47t-46 -123l-24 -225h-65l47 443h65l-11 -97q8 21 22 40.5t33.5 34t44.5 23.5t56 9q56 0 89 -29t38 -81
q19 45 61 77.5t106 32.5q71 0 106 -44.5t26 -129.5l-29 -279h-66z" />
    <glyph glyph-name="n" unicode="n" horiz-adv-x="562" 
d="M130 443h65l-11 -96q24 45 70 75.5t112 30.5q43 0 74.5 -14.5t50.5 -40.5t24 -60t0 -78l-27 -260h-65l25 241q3 33 -1 61t-17 48.5t-36 32.5t-56 12q-38 0 -67.5 -14.5t-50 -38.5t-33 -54t-15.5 -61l-24 -227h-65z" />
    <glyph glyph-name="o" unicode="o" horiz-adv-x="552" 
d="M276 -11q-50 0 -89 17t-66 45.5t-41.5 66.5t-14.5 81q0 51 19.5 97t53.5 81t81 55.5t103 20.5q50 0 89.5 -16.5t66.5 -45t41.5 -67t14.5 -81.5q0 -51 -19.5 -97t-54 -81t-81.5 -55.5t-103 -20.5zM282 49q40 0 74.5 15.5t59 41.5t38.5 60t14 72q0 32 -10.5 60.5t-30 49.5
t-47.5 33.5t-64 12.5q-40 0 -74 -15.5t-59 -41.5t-39 -60t-14 -72q0 -32 10 -60.5t29.5 -49.5t48 -33.5t64.5 -12.5z" />
    <glyph glyph-name="p" unicode="p" horiz-adv-x="593" 
d="M185 349q26 48 75.5 76t110.5 28q46 0 83.5 -16.5t64 -45t41 -67t14.5 -81.5q0 -50 -19.5 -96t-53 -81t-79.5 -56t-99 -21q-66 0 -107.5 30t-57.5 75l-37 -351h-65l74 700h65zM356 394q-40 0 -74 -15.5t-59 -41.5t-39 -60t-14 -72q0 -32 10.5 -60.5t30 -49.5t48 -33.5
t64.5 -12.5q40 0 74 15.5t59 41.5t38.5 60t13.5 72q0 32 -10 60.5t-29.5 49.5t-48 33.5t-64.5 12.5z" />
    <glyph glyph-name="q" unicode="q" horiz-adv-x="593" 
d="M492 443h65l-74 -700h-65l37 351q-27 -48 -76 -76.5t-110 -28.5q-46 0 -83.5 17t-64 45.5t-41 67t-14.5 81.5q0 51 19.5 96.5t53.5 80.5t80 55.5t99 20.5q66 0 106.5 -29.5t57.5 -74.5zM317 394q-41 0 -75 -15.5t-58.5 -41.5t-38.5 -60t-14 -72q0 -32 10 -60.5
t29.5 -49.5t48 -33.5t64.5 -12.5q40 0 74.5 15.5t59 41.5t38.5 60t14 72q0 32 -10.5 60.5t-30 49.5t-47.5 33.5t-64 12.5z" />
    <glyph glyph-name="r" unicode="r" horiz-adv-x="353" 
d="M388 382q-12 4 -20.5 5t-17.5 1q-42 0 -74 -15.5t-54.5 -41.5t-35.5 -60.5t-17 -73.5l-21 -197h-65l47 443h65l-11 -104q25 54 71.5 82t97.5 28q12 0 22.5 -1.5t18.5 -5.5z" />
    <glyph glyph-name="s" unicode="s" horiz-adv-x="450" 
d="M281 242q27 -7 51 -14.5t42 -19.5t28.5 -31t10.5 -48q0 -33 -13.5 -59t-37.5 -44t-57.5 -27.5t-73.5 -9.5q-39 0 -72.5 9.5t-56.5 29.5t-35 50t-7 72h64q-3 -30 4 -50t22.5 -33t37.5 -18.5t48 -5.5q54 0 84.5 21t30.5 59q0 20 -9.5 32t-27 20.5t-43 15.5t-57.5 16
q-27 7 -49.5 14.5t-39 19.5t-25.5 29.5t-9 44.5q0 34 14 59.5t38 43t56 26.5t68 9q38 0 69 -10t52 -29t31 -46.5t6 -61.5h-64q5 46 -21 70t-76 24q-47 0 -77.5 -21t-30.5 -59q0 -18 8.5 -29.5t24 -19.5t39 -14t53.5 -15z" />
    <glyph glyph-name="t" unicode="t" horiz-adv-x="329" 
d="M319 0q-13 -2 -34 -4t-42 -2t-44.5 4t-41.5 19.5t-28 46.5t-4 84l25 239h-89l6 56h89l17 164h66l-17 -164h128l-6 -56h-128l-24 -226q-4 -36 0 -57t14 -32t24.5 -14.5t31.5 -3.5q14 0 32.5 1.5t31.5 3.5z" />
    <glyph glyph-name="u" unicode="u" horiz-adv-x="560" 
d="M524 443l-47 -443h-65l10 96q-25 -48 -71 -77.5t-109 -29.5q-43 0 -75 15t-51 41t-24 60t0 78l27 260h66l-25 -241q-3 -33 1 -61t17 -48.5t35.5 -32.5t55.5 -12q38 0 67.5 14.5t50 38.5t33 54t15.5 61l24 227h65z" />
    <glyph glyph-name="v" unicode="v" horiz-adv-x="470" 
d="M125 443l119 -351l195 351h71l-253 -443h-47l-156 443h71z" />
    <glyph glyph-name="w" unicode="w" horiz-adv-x="715" 
d="M396 370l-170 -370h-47l-124 443h70l88 -344l159 344h65l86 -344l161 344h70l-218 -443h-47z" />
    <glyph glyph-name="x" unicode="x" horiz-adv-x="434" 
d="M411 0h-76l-100 172l-136 -172h-76l179 222l-131 221h76l99 -170l135 170h75l-178 -221z" />
    <glyph glyph-name="y" unicode="y" horiz-adv-x="568" 
d="M256 -267q-205 0 -188 202h66q-4 -76 28 -111t101 -35q32 0 58.5 8t46 27t32 49t17.5 75l16 148q-24 -45 -68 -76t-114 -31q-86 0 -126 54q-17 23 -22.5 56t0.5 89l27 255h66l-25 -236q-8 -72 15 -115.5t91 -43.5q40 0 70 14.5t51 38.5t33 54t15 61l24 227h64l-52 -495
q-12 -114 -69.5 -164.5t-156.5 -50.5z" />
    <glyph glyph-name="z" unicode="z" horiz-adv-x="431" 
d="M451 443l-306 -384h266l-6 -59h-379l305 384h-255l7 59h368z" />
    <glyph glyph-name="braceleft" unicode="{" horiz-adv-x="381" 
d="M429 794l-5 -52h-48q-39 0 -64.5 -27t-30.5 -69l-29 -268q-3 -28 -14.5 -47.5t-26.5 -32t-31 -19.5t-28 -10q12 -3 27 -10.5t27 -21t19 -34.5t4 -52l-25 -237q-5 -42 15.5 -69t59.5 -27h48l-6 -52h-62q-24 0 -47.5 8.5t-41.5 25.5t-27.5 43.5t-5.5 61.5l25 239
q3 26 -5 44.5t-21 30t-28.5 17t-27.5 5.5l6 55q12 0 28.5 5t31.5 16t26.5 28t14.5 41l29 269q4 35 19 61t36 43.5t46.5 26t49.5 8.5h62z" />
    <glyph glyph-name="bar" unicode="|" horiz-adv-x="231" 
d="M62 -234l108 1028h58l-108 -1028h-58z" />
    <glyph glyph-name="braceright" unicode="}" horiz-adv-x="381" 
d="M180 794q24 0 47.5 -8.5t41.5 -26t27.5 -43.5t5.5 -61l-28 -269q-3 -24 5.5 -41t21.5 -28t28.5 -16t27.5 -5l-6 -55q-12 0 -28.5 -5.5t-32 -17t-27 -30t-14.5 -44.5l-25 -239q-4 -35 -19 -61.5t-36.5 -43.5t-47 -25.5t-49.5 -8.5h-61l5 52h47q39 0 65 27t31 69l24 237
q3 30 14 50.5t26 34.5t31.5 22t30.5 11q-12 3 -27 10.5t-27 20t-19.5 32t-4.5 46.5l28 268q5 42 -15 69t-59 27h-47l5 52h61z" />
    <glyph glyph-name="asciitilde" unicode="~" horiz-adv-x="510" 
d="M65 295q26 28 55.5 39t54.5 11q26 0 55 -9.5t58 -22.5q30 -13 56.5 -24.5t51.5 -11.5q29 0 59 17t53 37l-6 -60q-26 -26 -56.5 -39.5t-59.5 -13.5q-25 0 -51 10t-58 25q-25 13 -54.5 23t-55.5 10q-30 0 -57.5 -14.5t-50.5 -37.5z" />
    <glyph glyph-name="exclamdown" unicode="&#xa1;" horiz-adv-x="283" 
d="M133 245h71l-53 -503h-71zM124 393q0 27 20 46.5t46 19.5q24 0 39.5 -16t15.5 -39q0 -27 -20 -46.5t-46 -19.5q-24 0 -39.5 16t-15.5 39z" />
    <glyph glyph-name="cent" unicode="&#xa2;" horiz-adv-x="548" 
d="M454 340q0 22 -6.5 42.5t-21.5 36.5t-39 25.5t-58 9.5q-45 0 -78.5 -16.5t-56 -43.5t-34 -62t-11.5 -72q0 -31 8.5 -58.5t26 -48.5t45 -33t66.5 -12q60 0 96 28.5t51 74.5h65q-17 -64 -65.5 -109t-133.5 -53l-11 -108h-52l11 109q-43 4 -75.5 22.5t-54 46.5t-32 63.5
t-10.5 73.5q0 46 15 89.5t43.5 79t69.5 58.5t93 28l11 109h52l-11 -109q45 -4 76.5 -20t50.5 -39.5t27 -52.5t8 -59h-65z" />
    <glyph glyph-name="sterling" unicode="&#xa3;" horiz-adv-x="596" 
d="M230 529q-2 -7 -4 -20.5t-4 -30.5t-4 -35t-3 -34h190l-5 -52h-190q-2 -9 -5 -33t-6 -50.5t-6.5 -49.5t-4.5 -30q-8 -51 -18 -81.5t-27 -50.5h350l-7 -62h-428l6 53q20 22 33 52.5t21 84.5q2 8 5.5 31t7 50t6.5 51t4 34h-68l6 52h68q3 32 5 50.5t2.5 28t1 12.5t0.5 5
q4 42 24 79.5t52.5 65t75 44t90.5 16.5t87 -16.5t65 -46t38 -69.5t7 -87h-69q3 32 -3.5 60.5t-23.5 50t-44.5 34t-65.5 12.5q-62 0 -103.5 -32t-55.5 -86z" />
    <glyph glyph-name="currency" unicode="&#xa4;" horiz-adv-x="775" 
d="M524 185q-31 -22 -68.5 -34.5t-81.5 -12.5q-43 0 -77.5 12.5t-60.5 35.5l-78 -70l-38 41l78 71q-16 25 -24.5 56.5t-8.5 64.5q0 47 16.5 87.5t46.5 75.5l-63 71l46 42l63 -71q31 23 68.5 35.5t80.5 12.5q44 0 79 -12.5t61 -34.5l76 69l38 -41l-78 -70q17 -25 26 -57
t9 -65q0 -46 -17 -88t-48 -76l63 -69l-46 -42zM382 197q40 0 74.5 15.5t59 41.5t38.5 60.5t14 72.5q0 32 -10.5 60.5t-30 49.5t-47.5 33.5t-64 12.5q-41 0 -74.5 -15.5t-58.5 -41.5t-38.5 -60.5t-13.5 -72.5q0 -32 10 -60.5t29.5 -49.5t47.5 -33.5t64 -12.5z" />
    <glyph glyph-name="yen" unicode="&#xa5;" horiz-adv-x="605" 
d="M139 700l201 -359l273 359h79l-316 -415h161l-5 -50h-172l-10 -92h172l-5 -52h-172l-10 -91h-62l10 91h-170l5 52h170l10 92h-170l5 50h159l-232 415h79z" />
    <glyph glyph-name="brokenbar" unicode="&#xa6;" horiz-adv-x="231" 
d="M120 322l50 472h58l-50 -472h-58zM170 237l-50 -471h-58l50 471h58z" />
    <glyph glyph-name="section" unicode="&#xa7;" horiz-adv-x="579" 
d="M281 97q-46 13 -83.5 27.5t-64 33t-41 44t-14.5 61.5q0 59 36 102t94 55q-30 20 -47.5 52t-17.5 74q0 45 19.5 80.5t52 60t75 37.5t89.5 13q50 0 90 -14.5t66.5 -41.5t39 -64t8.5 -82h-69q3 30 -4.5 56t-25 45.5t-45 31t-66.5 11.5q-32 0 -61 -8t-51 -24t-35.5 -39.5
t-13.5 -54.5q0 -30 12.5 -50t33 -34t47 -23t54.5 -17q43 -13 80.5 -27t65 -32.5t43 -44t15.5 -61.5q0 -31 -11 -57.5t-29 -47.5t-40.5 -35t-45.5 -19q36 -21 54.5 -51.5t18.5 -75.5q0 -46 -19 -81t-51.5 -58.5t-75 -35.5t-89.5 -12q-54 0 -97 15t-72 43t-42.5 67t-8.5 86h69
q-6 -70 35 -111t123 -41q31 0 60 7t50.5 21.5t34.5 37.5t13 55q0 25 -9 43.5t-28 33t-49.5 26.5t-72.5 23zM493 254q0 37 -26 56t-77 37q-5 3 -20.5 8.5t-34 11.5t-36.5 11.5t-28 8.5q-29 -1 -51.5 -11t-38.5 -26t-24 -36.5t-8 -41.5q0 -36 24.5 -57t75.5 -38q6 -3 24 -9
t38.5 -12.5t39 -12t25.5 -7.5q22 1 43 10.5t37.5 25.5t26.5 37t10 45z" />
    <glyph glyph-name="dieresis" unicode="&#xa8;" horiz-adv-x="518" 
d="M380 644q0 26 18.5 44.5t44.5 18.5q23 0 38.5 -15.5t15.5 -37.5q0 -26 -19.5 -44.5t-45.5 -18.5q-23 0 -37.5 15t-14.5 38zM150 644q0 26 18.5 44.5t44.5 18.5q23 0 38.5 -15.5t15.5 -37.5q0 -26 -19.5 -44.5t-45.5 -18.5q-23 0 -37.5 15t-14.5 38z" />
    <glyph glyph-name="copyright" unicode="&#xa9;" horiz-adv-x="807" 
d="M405 -17q-79 0 -140 27.5t-102 73t-62.5 105.5t-21.5 125q0 77 29 149.5t81.5 129t125.5 90.5t161 34q79 0 140 -27.5t102 -73.5t62.5 -106t21.5 -125q0 -77 -29 -149.5t-81 -128.5t-125.5 -90t-161.5 -34zM623 266q-11 -27 -30 -50t-45 -40.5t-58 -27t-68 -9.5
q-45 0 -80 15t-59.5 41.5t-37 61t-12.5 73.5q0 44 16 85.5t46 74t73 52t96 19.5q78 0 124 -40t51 -105h-47q-8 45 -42 74t-91 29q-41 0 -74.5 -15.5t-56.5 -41.5t-35.5 -59.5t-12.5 -68.5q0 -31 10 -58.5t29 -48.5t46.5 -33t62.5 -12q52 0 89.5 24.5t56.5 59.5h49zM410 28
q75 0 137 30t106.5 79.5t69 113.5t24.5 132q0 57 -18 109.5t-53 92t-86 63.5t-118 24q-75 0 -137.5 -30t-107 -79.5t-69 -113.5t-24.5 -131q0 -57 18 -109.5t53 -92.5t86.5 -64t118.5 -24z" />
    <glyph glyph-name="ordfeminine" unicode="&#xaa;" horiz-adv-x="592" 
d="M556 443l-47 -443h-65l10 93q-26 -45 -74.5 -74.5t-111.5 -29.5q-46 0 -83.5 17t-64 45.5t-41 67t-14.5 81.5q0 51 19.5 96.5t53.5 80.5t80 55.5t99 20.5q66 0 106.5 -29.5t57.5 -74.5l10 94h65zM282 49q40 0 74.5 15.5t59 41.5t38.5 60t14 72q0 32 -10.5 60.5t-30 49.5
t-47.5 33.5t-64 12.5q-40 0 -74 -15.5t-59 -41.5t-39 -60t-14 -72q0 -32 10 -60.5t29.5 -49.5t48 -33.5t64.5 -12.5z" />
    <glyph glyph-name="guillemotleft" unicode="&#xab;" horiz-adv-x="472" 
d="M442 100l-178 170l4 42l214 170l-7 -67l-155 -124l129 -124zM246 100l-178 170l4 42l214 170l-7 -67l-155 -124l129 -124z" />
    <glyph glyph-name="logicalnot" unicode="&#xac;" 
d="M453 296h-339l6 58h404l-21 -204h-65z" />
    <glyph glyph-name="uni00AD" unicode="&#xad;" horiz-adv-x="294" 
d="M293 275h-234l2 20h234z" />
    <glyph glyph-name="registered" unicode="&#xae;" horiz-adv-x="812" 
d="M408 -17q-80 0 -141.5 27.5t-103 73t-63 105.5t-21.5 125q0 77 29 149.5t82 129t126.5 90.5t162.5 34q80 0 141 -27.5t102.5 -73t63 -105.5t21.5 -125q0 -77 -29 -150t-81.5 -129t-126 -90t-162.5 -34zM411 28q76 0 138.5 30t107.5 79.5t70 113t25 131.5q0 57 -18 109.5
t-53 92.5t-87 64t-119 24q-76 0 -138.5 -30t-107.5 -79.5t-70 -113t-25 -131.5q0 -57 18 -109.5t53 -92.5t86.5 -64t119.5 -24zM298 159l43 407h151q28 0 50.5 -10t38 -26.5t23.5 -39t8 -47.5q0 -49 -29.5 -88t-78.5 -52l76 -144h-55l-73 138h-90l-15 -138h-49zM463 341
q44 0 71 29t27 69q0 35 -20.5 59t-58.5 24h-97l-19 -181h97z" />
    <glyph glyph-name="macron" unicode="&#xaf;" horiz-adv-x="529" 
d="M520 723h-358l6 59h358z" />
    <glyph glyph-name="degree" unicode="&#xb0;" horiz-adv-x="331" 
d="M369 587q0 -32 -13 -60.5t-34.5 -49.5t-50.5 -33.5t-60 -12.5q-29 0 -52.5 10t-41 27.5t-27 41.5t-9.5 51q0 32 13 60.5t34.5 49.5t50 33.5t60.5 12.5q28 0 52 -10t41.5 -27.5t27 -41.5t9.5 -51zM319 582q0 35 -23.5 61t-61.5 26q-21 0 -39.5 -8t-33 -22.5t-23 -33.5
t-8.5 -40q0 -36 24 -61t62 -25q21 0 39.5 8t32.5 22t22.5 33t8.5 40z" />
    <glyph glyph-name="plusminus" unicode="&#xb1;" 
d="M275 221l18 167h-164l6 59h164l18 169h65l-18 -169h165l-6 -59h-165l-18 -167h-65zM93 48l6 58h394l-6 -58h-394z" />
    <glyph glyph-name="twosuperior" unicode="&#xb2;" horiz-adv-x="363" 
d="M88 315q5 48 16 79.5t27.5 52.5t38.5 34.5t50 26.5q21 9 39 18t31 20t20.5 25t7.5 33q0 29 -16.5 44t-45.5 15q-35 0 -57 -20.5t-27 -57.5h-55q7 56 45.5 89t97.5 33q50 0 81 -25.5t31 -74.5q0 -29 -11 -50t-28 -36.5t-37.5 -26.5t-39.5 -20q-26 -12 -44 -22.5
t-29.5 -22.5t-17.5 -28t-9 -40h192l-5 -46h-255v0z" />
    <glyph glyph-name="threesuperior" unicode="&#xb3;" horiz-adv-x="373" 
d="M149 432q-4 -36 15.5 -57t55.5 -21q39 0 61.5 22.5t22.5 54.5q0 27 -17.5 44.5t-52.5 17.5h-33l5 44h33q39 0 58.5 20t19.5 49q0 28 -17 42.5t-47 14.5q-36 0 -55.5 -19t-22.5 -51h-55q5 50 40.5 82t95.5 32q51 0 83.5 -25t32.5 -70q0 -38 -21.5 -63.5t-54.5 -33.5
q29 -8 46 -29.5t17 -56.5q0 -28 -11.5 -50.5t-31 -38t-45.5 -24t-55 -8.5q-62 0 -95 34.5t-27 89.5h55z" />
    <glyph glyph-name="acute" unicode="&#xb4;" horiz-adv-x="419" 
d="M130 539l-27 52l263 137l27 -52z" />
    <glyph glyph-name="uni00B5" unicode="&#xb5;" 
d="M129 443h65l-25 -241q-3 -33 1 -61t17 -48.5t36 -32.5t56 -12q38 0 67.5 14.5t50 38.5t33 54t15.5 61l24 227h65l-47 -443h-65l10 96q-23 -45 -69.5 -76t-108.5 -31q-71 0 -102 47l-31 -293h-66z" />
    <glyph glyph-name="paragraph" unicode="&#xb6;" horiz-adv-x="639" 
d="M265 329q-43 0 -79 10t-62.5 31.5t-41 55t-14.5 80.5q0 46 13.5 79.5t36 57t51.5 38t59 22.5t59 11t52 3h306l-6 -56h-53l-85 -809h-62l85 808h-162l-85 -808h-62z" />
    <glyph glyph-name="periodcentered" unicode="&#xb7;" horiz-adv-x="230" 
d="M87 307q0 27 20 46t46 19q24 0 39.5 -15.5t15.5 -38.5q0 -27 -20 -46t-47 -19q-23 0 -38.5 15.5t-15.5 38.5z" />
    <glyph glyph-name="cedilla" unicode="&#xb8;" horiz-adv-x="404" 
d="M127 0h45l-8 -77q9 13 23 19.5t31 6.5q31 0 53.5 -21.5t22.5 -57.5q0 -20 -7.5 -38.5t-21 -33t-32.5 -23.5t-43 -9q-15 0 -31 4.5t-29 14.5t-21.5 27t-8.5 43h42q0 -23 13 -37t36 -14q26 0 43 18t17 43q0 21 -13 35t-38 14q-11 0 -23.5 -5.5t-24.5 -26.5h-37z" />
    <glyph glyph-name="onesuperior" unicode="&#xb9;" horiz-adv-x="253" 
d="M113 634q26 0 43 4t27 12t14.5 20.5t6.5 29.5h50l-40 -385h-56l29 279h-78z" />
    <glyph glyph-name="ordmasculine" unicode="&#xba;" horiz-adv-x="552" 
d="M276 -11q-50 0 -89 17t-66 45.5t-41.5 66.5t-14.5 81q0 51 19.5 97t53.5 81t81 55.5t103 20.5q50 0 89.5 -16.5t66.5 -45t41.5 -67t14.5 -81.5q0 -51 -19.5 -97t-54 -81t-81.5 -55.5t-103 -20.5zM282 49q40 0 74.5 15.5t59 41.5t38.5 60t14 72q0 32 -10.5 60.5t-30 49.5
t-47.5 33.5t-64 12.5q-40 0 -74 -15.5t-59 -41.5t-39 -60t-14 -72q0 -32 10 -60.5t29.5 -49.5t48 -33.5t64.5 -12.5z" />
    <glyph glyph-name="guillemotright" unicode="&#xbb;" horiz-adv-x="472" 
d="M58 167l155 124l-129 124l7 67l178 -170l-4 -42l-214 -170zM254 167l155 124l-129 124l7 67l178 -170l-4 -42l-214 -170z" />
    <glyph glyph-name="onequarter" unicode="&#xbc;" horiz-adv-x="883" 
d="M127 634q26 0 43 4t27 12t14.5 20.5t6.5 29.5h49l-40 -385h-56l29 279h-77zM709 124h-152l27 261h55l-22 -213h97l12 116h55l-12 -116h58l-5 -48h-58l-13 -124h-55zM640 764l50 -29l-485 -798l-50 29z" />
    <glyph glyph-name="onehalf" unicode="&#xbd;" horiz-adv-x="883" 
d="M127 634q26 0 43 4t27 12t14.5 20.5t6.5 29.5h49l-40 -385h-56l29 279h-77zM543 0q5 48 15.5 79.5t27 52.5t38.5 34.5t50 26.5q21 9 39 18t31 20t20.5 25t7.5 33q0 29 -16.5 44t-46.5 15q-35 0 -57 -20.5t-26 -57.5h-55q6 56 45 89t98 33q50 0 81 -25.5t31 -74.5
q0 -29 -10.5 -49.5t-27.5 -36t-38 -27t-41 -20.5q-26 -12 -44 -22.5t-29.5 -22.5t-17.5 -28t-9 -40h192l-4 -46h-254zM640 764l50 -29l-485 -798l-50 29z" />
    <glyph glyph-name="threequarters" unicode="&#xbe;" horiz-adv-x="883" 
d="M149 432q-4 -36 15.5 -57t55.5 -21q38 0 61 22t23 55q0 27 -17.5 44.5t-53.5 17.5h-32l5 44h32q41 0 60 20t19 49q0 28 -17 42.5t-48 14.5q-36 0 -55.5 -19t-22.5 -51h-55q5 48 40.5 81t96.5 33q51 0 83 -25t32 -71q0 -37 -21 -62.5t-55 -33.5q29 -8 46.5 -30t17.5 -56
q0 -28 -11.5 -50.5t-31 -38t-46 -24t-55.5 -8.5q-62 0 -95 34.5t-27 89.5h56zM709 124h-152l28 261h55l-23 -213h97l13 116h55l-13 -116h58l-5 -48h-58l-13 -124h-55zM658 764l50 -29l-485 -798l-50 29z" />
    <glyph glyph-name="questiondown" unicode="&#xbf;" horiz-adv-x="497" 
d="M333 255q-4 -38 -13 -66.5t-23.5 -50t-34 -38.5t-45.5 -33q-16 -9 -36.5 -22.5t-38.5 -32.5t-30.5 -45t-12.5 -60q0 -56 34.5 -85t94.5 -29q38 0 68.5 11.5t52 32.5t34.5 50t17 63h69q-5 -50 -26 -90.5t-53.5 -69t-75.5 -44t-92 -15.5q-88 0 -139.5 46t-51.5 126
q0 42 14 74t34.5 55t43 38.5t39.5 26.5q25 16 43.5 29.5t31 30t20 40t10.5 58.5h66zM376 398q0 -28 -20 -48t-47 -20q-25 0 -41 16.5t-16 40.5q0 27 20.5 47t47.5 20q25 0 40.5 -16.5t15.5 -39.5z" />
    <glyph glyph-name="Agrave" unicode="&#xc0;" horiz-adv-x="546" 
d="M540 0h-72l-30 125h-304l-56 -125h-72l315 700h52zM162 187h262l-89 404zM238 886l37 53l234 -137l-36 -53z" />
    <glyph glyph-name="Aacute" unicode="&#xc1;" horiz-adv-x="546" 
d="M540 0h-72l-30 125h-304l-56 -125h-72l315 700h52zM162 187h262l-89 404zM243 739l-26 52l264 137l25 -52z" />
    <glyph glyph-name="Acircumflex" unicode="&#xc2;" horiz-adv-x="546" 
d="M540 0h-72l-30 125h-304l-56 -125h-72l315 700h52zM162 187h262l-89 404zM372 943l159 -151l-42 -43l-125 121l-148 -121l-35 43z" />
    <glyph glyph-name="Atilde" unicode="&#xc3;" horiz-adv-x="546" 
d="M540 0h-72l-30 125h-304l-56 -125h-72l315 700h52zM162 187h262l-89 404zM435 845q23 0 41 15.5t30 37.5l47 -24q-24 -41 -57 -61t-68 -20q-24 0 -42 8.5t-32.5 18t-28.5 18t-30 8.5q-23 0 -41.5 -16.5t-29.5 -36.5l-45 29q26 40 58 58t64 18q25 0 43 -8.5t32.5 -18
t28 -18t30.5 -8.5z" />
    <glyph glyph-name="Adieresis" unicode="&#xc4;" horiz-adv-x="546" 
d="M540 0h-72l-30 125h-304l-56 -125h-72l315 700h52zM162 187h262l-89 404zM416 826q0 27 19.5 46.5t46.5 19.5q24 0 39.5 -16t15.5 -39q0 -27 -20.5 -46t-46.5 -19q-24 0 -39 15.5t-15 38.5zM186 826q0 27 20 46.5t46 19.5q24 0 39.5 -16t15.5 -39q0 -27 -20.5 -46
t-46.5 -19q-24 0 -39 15.5t-15 38.5z" />
    <glyph glyph-name="Aring" unicode="&#xc5;" horiz-adv-x="546" 
d="M540 0h-72l-30 125h-304l-56 -125h-72l315 700h52zM162 187h262l-89 404zM376 976q24 0 44.5 -9t35.5 -24t23 -35.5t8 -43.5q0 -27 -11 -51.5t-30 -42.5t-43 -29t-51 -11q-24 0 -44.5 9t-35.5 24.5t-23.5 36t-8.5 43.5q0 27 11.5 51t30 42.5t43 29t51.5 10.5zM371 932
q-17 0 -32.5 -7t-27.5 -19t-19 -27.5t-7 -32.5q0 -29 19.5 -50t50.5 -21q17 0 33 7t28 18.5t19 27t7 32.5q0 29 -20 50.5t-51 21.5z" />
    <glyph glyph-name="AE" unicode="&#xc6;" horiz-adv-x="847" 
d="M520 638l-27 -259h314l-7 -62h-314l-26 -255h314l-7 -62h-382l13 125h-246l-75 -125h-75l424 700h415l-7 -62h-314zM405 188l46 436l-262 -436h216z" />
    <glyph glyph-name="Ccedilla" unicode="&#xc7;" horiz-adv-x="775" 
d="M711 464q-6 40 -23.5 75t-47.5 60t-71.5 39.5t-94.5 14.5q-75 0 -135.5 -28t-102.5 -74.5t-65 -106.5t-23 -123q0 -56 18 -106t52.5 -87.5t84 -59t112.5 -21.5q92 0 161.5 44.5t103.5 114.5h75q-22 -47 -50.5 -85.5t-68 -66t-93 -45t-125.5 -22.5q-2 0 -8 -0.5t-8 -0.5
l-6 -58q18 23 56 23q32 0 52 -20.5t20 -52.5q0 -19 -8 -36.5t-21.5 -31t-32 -21.5t-40.5 -8q-13 0 -28.5 3.5t-28.5 12t-22.5 23.5t-10.5 38h43q2 -17 14 -28t33 -11q26 0 42.5 16t16.5 39q0 18 -11.5 31.5t-34.5 13.5q-14 0 -27 -6t-24 -23h-37l10 98q-68 8 -120 37t-87 73
t-53.5 99.5t-18.5 117.5q0 77 28 149t80 128t126 89.5t167 33.5q71 0 125.5 -20t92.5 -54t59.5 -80t25.5 -97h-71z" />
    <glyph glyph-name="Egrave" unicode="&#xc8;" horiz-adv-x="543" 
d="M218 638l-27 -259h314l-7 -62h-314l-26 -255h314l-7 -62h-382l74 700h382l-7 -62h-314zM238 877l38 52l234 -137l-37 -52z" />
    <glyph glyph-name="Eacute" unicode="&#xc9;" horiz-adv-x="543" 
d="M218 638l-27 -259h314l-7 -62h-314l-26 -255h314l-7 -62h-382l74 700h382l-7 -62h-314zM252 749l-27 53l264 137l26 -53z" />
    <glyph glyph-name="Ecircumflex" unicode="&#xca;" horiz-adv-x="543" 
d="M218 638l-27 -259h314l-7 -62h-314l-26 -255h314l-7 -62h-382l74 700h382l-7 -62h-314zM378 943l160 -151l-42 -43l-125 121l-149 -121l-35 43z" />
    <glyph glyph-name="Edieresis" unicode="&#xcb;" horiz-adv-x="543" 
d="M218 638l-27 -259h314l-7 -62h-314l-26 -255h314l-7 -62h-382l74 700h382l-7 -62h-314zM423 826q0 27 19.5 46.5t46.5 19.5q24 0 39.5 -16t15.5 -39q0 -27 -20.5 -46t-46.5 -19q-24 0 -39 15.5t-15 38.5zM193 826q0 27 20 46.5t46 19.5q24 0 39.5 -16t15.5 -39
q0 -27 -20.5 -46t-46.5 -19q-24 0 -39 15.5t-15 38.5z" />
    <glyph glyph-name="Igrave" unicode="&#xcc;" horiz-adv-x="236" 
d="M157 700h70l-74 -700h-70zM70 876l36 52l235 -137l-36 -52z" />
    <glyph glyph-name="Iacute" unicode="&#xcd;" horiz-adv-x="236" 
d="M156 700h70l-73 -700h-70zM87 740l-26 52l263 137l26 -52z" />
    <glyph glyph-name="Icircumflex" unicode="&#xce;" horiz-adv-x="236" 
d="M156 700h70l-73 -700h-70zM217 943l159 -151l-43 -43l-124 121l-149 -121l-34 43z" />
    <glyph glyph-name="Idieresis" unicode="&#xcf;" horiz-adv-x="236" 
d="M157 700h70l-74 -700h-70zM262 826q0 27 20.5 46.5t46.5 19.5q23 0 38.5 -16t15.5 -39q0 -27 -20.5 -46t-46.5 -19q-23 0 -38.5 15.5t-15.5 38.5zM32 826q0 27 20.5 46.5t46.5 19.5q23 0 38.5 -16t15.5 -39q0 -27 -20.5 -46t-46.5 -19q-23 0 -38.5 15.5t-15.5 38.5z" />
    <glyph glyph-name="Eth" unicode="&#xd0;" horiz-adv-x="694" 
d="M361 700q80 0 141.5 -27t103 -71.5t63 -102t21.5 -118.5q0 -71 -28 -139.5t-80.5 -122t-127 -86.5t-166.5 -33h-205l34 325h-112l5 51h112l34 324h205zM302 325h-117l-28 -263h137q75 0 135.5 27t102.5 71.5t64.5 100.5t22.5 115q0 51 -17 98t-50 83.5t-82.5 58.5
t-114.5 22h-137l-28 -262h117z" />
    <glyph glyph-name="Ntilde" unicode="&#xd1;" horiz-adv-x="662" 
d="M522 118l62 582h69l-74 -700h-76l-291 582l-61 -582h-68l74 700h76zM488 845q24 0 42.5 16.5t29.5 36.5l47 -24q-25 -42 -59 -61.5t-67 -19.5q-24 0 -41.5 8.5t-32 18t-28 18t-30.5 8.5q-24 0 -42 -16.5t-29 -36.5l-45 29q25 40 57.5 58t64.5 18q25 0 42.5 -8.5t32 -18
t28 -18t30.5 -8.5z" />
    <glyph glyph-name="Ograve" unicode="&#xd2;" horiz-adv-x="806" 
d="M405 -15q-80 0 -141 27t-102 73t-62.5 105.5t-21.5 124.5q0 76 29 148.5t81 128t125 89.5t162 34q79 0 140.5 -27t102.5 -73t62.5 -105.5t21.5 -124.5q0 -77 -29 -149t-81 -127.5t-125.5 -89.5t-161.5 -34zM410 47q71 0 130 28t101.5 74.5t66 106.5t23.5 124
q0 54 -17 103t-50 87t-82 60.5t-113 22.5q-71 0 -130 -28t-101 -74.5t-65.5 -106.5t-23.5 -124q0 -54 17 -103t50 -87t82 -60.5t112 -22.5zM347 886l36 53l235 -137l-37 -53z" />
    <glyph glyph-name="Oacute" unicode="&#xd3;" horiz-adv-x="806" 
d="M405 -15q-80 0 -141 27t-102 73t-62.5 105.5t-21.5 124.5q0 76 29 148.5t81 128t125 89.5t162 34q79 0 140.5 -27t102.5 -73t62.5 -105.5t21.5 -124.5q0 -77 -29 -149t-81 -127.5t-125.5 -89.5t-161.5 -34zM410 47q71 0 130 28t101.5 74.5t66 106.5t23.5 124
q0 54 -17 103t-50 87t-82 60.5t-113 22.5q-71 0 -130 -28t-101 -74.5t-65.5 -106.5t-23.5 -124q0 -54 17 -103t50 -87t82 -60.5t112 -22.5zM380 749l-25 53l263 137l26 -53z" />
    <glyph glyph-name="Ocircumflex" unicode="&#xd4;" horiz-adv-x="806" 
d="M405 -15q-80 0 -141 27t-102 73t-62.5 105.5t-21.5 124.5q0 76 29 148.5t81 128t125 89.5t162 34q79 0 140.5 -27t102.5 -73t62.5 -105.5t21.5 -124.5q0 -77 -29 -149t-81 -127.5t-125.5 -89.5t-161.5 -34zM410 47q71 0 130 28t101.5 74.5t66 106.5t23.5 124
q0 54 -17 103t-50 87t-82 60.5t-113 22.5q-71 0 -130 -28t-101 -74.5t-65.5 -106.5t-23.5 -124q0 -54 17 -103t50 -87t82 -60.5t112 -22.5zM502 943l161 -151l-43 -43l-125 121l-149 -121l-34 43z" />
    <glyph glyph-name="Otilde" unicode="&#xd5;" horiz-adv-x="806" 
d="M405 -15q-80 0 -141 27t-102 73t-62.5 105.5t-21.5 124.5q0 76 29 148.5t81 128t125 89.5t162 34q79 0 140.5 -27t102.5 -73t62.5 -105.5t21.5 -124.5q0 -77 -29 -149t-81 -127.5t-125.5 -89.5t-161.5 -34zM410 47q71 0 130 28t101.5 74.5t66 106.5t23.5 124
q0 54 -17 103t-50 87t-82 60.5t-113 22.5q-71 0 -130 -28t-101 -74.5t-65.5 -106.5t-23.5 -124q0 -54 17 -103t50 -87t82 -60.5t112 -22.5zM563 845q22 0 41.5 15t31.5 38l47 -24q-24 -41 -57 -61t-68 -20q-24 0 -42 8.5t-32.5 18t-28.5 18t-31 8.5q-22 0 -40 -15t-30 -38
l-44 29q24 40 56.5 58t65.5 18q25 0 42 -8.5t31.5 -18t27.5 -18t30 -8.5z" />
    <glyph glyph-name="Odieresis" unicode="&#xd6;" horiz-adv-x="806" 
d="M405 -15q-80 0 -141 27t-102 73t-62.5 105.5t-21.5 124.5q0 76 29 148.5t81 128t125 89.5t162 34q79 0 140.5 -27t102.5 -73t62.5 -105.5t21.5 -124.5q0 -77 -29 -149t-81 -127.5t-125.5 -89.5t-161.5 -34zM149 320q0 -54 17 -103t50 -87t82 -60.5t112 -22.5q71 0 130 28
t101.5 74.5t66 106.5t23.5 124q0 54 -17 103t-50 87t-82 60.5t-113 22.5q-71 0 -130 -28t-101 -74.5t-65.5 -106.5t-23.5 -124zM369 772q-23 0 -38.5 15.5t-15.5 38.5q0 27 20 46.5t46 19.5q24 0 39.5 -16t15.5 -39q0 -27 -20 -46t-47 -19zM545 826q0 27 20 46.5t46 19.5
q24 0 39.5 -16t15.5 -39q0 -27 -20 -46t-47 -19q-23 0 -38.5 15.5t-15.5 38.5z" />
    <glyph glyph-name="multiply" unicode="&#xd7;" 
d="M451 451l41 -46l-135 -122l108 -120l-47 -42l-106 120l-135 -122l-41 46l134 122l-107 120l47 42l106 -120z" />
    <glyph glyph-name="Oslash" unicode="&#xd8;" horiz-adv-x="806" 
d="M402 -15q-69 0 -124 21l-43 -81l-46 20l43 82q-38 21 -66.5 52t-48 68.5t-29.5 80.5t-10 87q0 76 28.5 148.5t81 128t126.5 89.5t164 34q61 0 112 -17l41 75l44 -21l-38 -74q40 -20 71 -51.5t52 -70t31.5 -82.5t10.5 -90q0 -76 -29 -148t-81.5 -127.5t-126 -89.5
t-163.5 -34zM408 47q72 0 131.5 28t102 74.5t66 106t23.5 122.5q0 75 -32.5 140t-95.5 100l-294 -553q43 -18 99 -18zM149 322q0 -36 7.5 -70t22.5 -64.5t36.5 -56t49.5 -43.5l294 551q-40 14 -89 14q-72 0 -131 -28t-101.5 -74.5t-65.5 -106t-23 -122.5z" />
    <glyph glyph-name="Ugrave" unicode="&#xd9;" horiz-adv-x="618" 
d="M146 700h68l-50 -480q-4 -35 4.5 -66.5t28 -55t49.5 -37.5t68 -14t70.5 14t57 37.5t39.5 55t19 66.5l50 480h68l-50 -480q-5 -48 -26 -90.5t-55 -74.5t-79.5 -51t-99.5 -19q-53 0 -94.5 18.5t-69.5 50.5t-40.5 74.5t-7.5 91.5zM269 886l37 53l235 -137l-37 -53z" />
    <glyph glyph-name="Uacute" unicode="&#xda;" horiz-adv-x="618" 
d="M146 700h68l-50 -480q-4 -35 4.5 -66.5t28 -55t49.5 -37.5t68 -14t70.5 14t57 37.5t39.5 55t19 66.5l50 480h68l-50 -480q-5 -48 -26 -90.5t-55 -74.5t-79.5 -51t-99.5 -19q-53 0 -94.5 18.5t-69.5 50.5t-40.5 74.5t-7.5 91.5zM267 749l-26 53l263 137l26 -53z" />
    <glyph glyph-name="Ucircumflex" unicode="&#xdb;" horiz-adv-x="618" 
d="M146 700h68l-50 -480q-4 -35 4.5 -66.5t28 -55t49.5 -37.5t68 -14t70.5 14t57 37.5t39.5 55t19 66.5l50 480h68l-50 -480q-5 -48 -26 -90.5t-55 -74.5t-79.5 -51t-99.5 -19q-53 0 -94.5 18.5t-69.5 50.5t-40.5 74.5t-7.5 91.5zM407 943l160 -150l-43 -44l-124 122
l-149 -121l-34 43z" />
    <glyph glyph-name="Udieresis" unicode="&#xdc;" horiz-adv-x="618" 
d="M146 700h68l-50 -480q-4 -35 4.5 -66.5t28 -55t49.5 -37.5t68 -14t70.5 14t57 37.5t39.5 55t19 66.5l50 480h68l-50 -480q-5 -48 -26 -90.5t-55 -74.5t-79.5 -51t-99.5 -19q-53 0 -94.5 18.5t-69.5 50.5t-40.5 74.5t-7.5 91.5zM450 826q0 27 20 46.5t46 19.5
q24 0 39.5 -16t15.5 -39q0 -28 -20.5 -46.5t-46.5 -18.5q-24 0 -39 15.5t-15 38.5zM220 826q0 27 20.5 46.5t46.5 19.5q23 0 38.5 -16t15.5 -39q0 -27 -20.5 -46t-46.5 -19q-23 0 -38.5 15.5t-15.5 38.5z" />
    <glyph glyph-name="Yacute" unicode="&#xdd;" 
d="M209 0h-75l171 277l-222 423h79l185 -353l218 353h75zM290 753l-27 52l263 137l27 -52z" />
    <glyph glyph-name="Thorn" unicode="&#xde;" horiz-adv-x="499" 
d="M157 700h62l-14 -133h94q50 0 88.5 -16.5t65 -44.5t40 -64.5t13.5 -76.5q0 -46 -18 -89.5t-51 -77t-80 -54t-105 -20.5h-94l-13 -124h-62zM199 510l-35 -330h94q42 0 76 15t58 40t37 57.5t13 67.5q0 30 -10 57t-28.5 48t-46.5 33t-64 12h-94z" />
    <glyph glyph-name="germandbls" unicode="&#xdf;" horiz-adv-x="558" 
d="M207 59q19 -6 41 -9t41 -3q36 0 68 11t56.5 30.5t38.5 47.5t14 62q0 27 -9.5 51.5t-28 43.5t-46 30t-64.5 11h-48l6 59h46q39 0 69.5 11.5t51 31.5t31 45.5t10.5 54.5q0 54 -35 85.5t-96 31.5q-69 0 -111.5 -39t-49.5 -102l-54 -512h-65l54 512q4 44 22.5 80.5t48.5 63
t70 41.5t88 15q43 0 78.5 -12t61 -34.5t39.5 -54.5t14 -71q0 -67 -39 -114.5t-108 -62.5q59 -14 94 -55.5t35 -106.5q0 -49 -20.5 -88.5t-55 -67t-79 -42.5t-93.5 -15q-25 0 -46.5 3.5t-35.5 8.5z" />
    <glyph glyph-name="agrave" unicode="&#xe0;" horiz-adv-x="592" 
d="M556 443l-47 -443h-65l10 93q-26 -45 -74.5 -74.5t-111.5 -29.5q-46 0 -83.5 17t-64 45.5t-41 67t-14.5 81.5q0 51 19.5 96.5t53.5 80.5t80 55.5t99 20.5q66 0 106.5 -29.5t57.5 -74.5l10 94h65zM282 49q40 0 74.5 15.5t59 41.5t38.5 60t14 72q0 32 -10.5 60.5t-30 49.5
t-47.5 33.5t-64 12.5q-40 0 -74 -15.5t-59 -41.5t-39 -60t-14 -72q0 -32 10 -60.5t29.5 -49.5t48 -33.5t64.5 -12.5zM202 647l37 52l234 -137l-36 -52z" />
    <glyph glyph-name="aacute" unicode="&#xe1;" horiz-adv-x="592" 
d="M556 443l-47 -443h-65l10 93q-26 -45 -74.5 -74.5t-111.5 -29.5q-46 0 -83.5 17t-64 45.5t-41 67t-14.5 81.5q0 51 19.5 96.5t53.5 80.5t80 55.5t99 20.5q66 0 106.5 -29.5t57.5 -74.5l10 94h65zM282 49q40 0 74.5 15.5t59 41.5t38.5 60t14 72q0 32 -10.5 60.5t-30 49.5
t-47.5 33.5t-64 12.5q-40 0 -74 -15.5t-59 -41.5t-39 -60t-14 -72q0 -32 10 -60.5t29.5 -49.5t48 -33.5t64.5 -12.5zM222 510l-26 52l264 137l25 -52z" />
    <glyph glyph-name="acircumflex" unicode="&#xe2;" horiz-adv-x="592" 
d="M556 443l-47 -443h-65l10 93q-26 -45 -74.5 -74.5t-111.5 -29.5q-46 0 -83.5 17t-64 45.5t-41 67t-14.5 81.5q0 51 19.5 96.5t53.5 80.5t80 55.5t99 20.5q66 0 106.5 -29.5t57.5 -74.5l10 94h65zM282 49q40 0 74.5 15.5t59 41.5t38.5 60t14 72q0 32 -10.5 60.5t-30 49.5
t-47.5 33.5t-64 12.5q-40 0 -74 -15.5t-59 -41.5t-39 -60t-14 -72q0 -32 10 -60.5t29.5 -49.5t48 -33.5t64.5 -12.5zM358 728l159 -150l-43 -44l-124 122l-149 -121l-34 43z" />
    <glyph glyph-name="atilde" unicode="&#xe3;" horiz-adv-x="592" 
d="M556 443l-47 -443h-65l10 93q-26 -45 -74.5 -74.5t-111.5 -29.5q-46 0 -83.5 17t-64 45.5t-41 67t-14.5 81.5q0 51 19.5 96.5t53.5 80.5t80 55.5t99 20.5q66 0 106.5 -29.5t57.5 -74.5l10 94h65zM282 49q40 0 74.5 15.5t59 41.5t38.5 60t14 72q0 32 -10.5 60.5t-30 49.5
t-47.5 33.5t-64 12.5q-40 0 -74 -15.5t-59 -41.5t-39 -60t-14 -72q0 -32 10 -60.5t29.5 -49.5t48 -33.5t64.5 -12.5zM427 622q23 0 41.5 16t30.5 38l47 -24q-24 -42 -57 -62t-68 -20q-24 0 -42 8.5t-32.5 18.5t-28.5 18.5t-30 8.5q-21 0 -39.5 -15t-31.5 -39l-45 29
q26 40 58 58.5t65 18.5q25 0 42.5 -8.5t32 -18.5t27.5 -18.5t30 -8.5z" />
    <glyph glyph-name="adieresis" unicode="&#xe4;" horiz-adv-x="592" 
d="M444 0l10 93q-26 -45 -74.5 -74.5t-111.5 -29.5q-46 0 -83.5 17t-64 45.5t-41 67t-14.5 81.5q0 51 19.5 96.5t53.5 80.5t80 55.5t99 20.5q66 0 106.5 -29.5t57.5 -74.5l10 94h65l-47 -443h-65zM282 49q40 0 74.5 15.5t59 41.5t38.5 60t14 72q0 32 -10.5 60.5t-30 49.5
t-47.5 33.5t-64 12.5q-40 0 -74 -15.5t-59 -41.5t-39 -60t-14 -72q0 -32 10 -60.5t29.5 -49.5t48 -33.5t64.5 -12.5zM447 546q-24 0 -39.5 15.5t-15.5 38.5q0 27 20 46.5t46 19.5q24 0 39.5 -16t15.5 -39q0 -28 -20 -46.5t-46 -18.5zM162 600q0 27 20 46.5t46 19.5
q24 0 39.5 -16t15.5 -39q0 -28 -20 -46.5t-46 -18.5q-24 0 -39.5 15.5t-15.5 38.5z" />
    <glyph glyph-name="aring" unicode="&#xe5;" horiz-adv-x="592" 
d="M556 443l-47 -443h-65l10 93q-26 -45 -74.5 -74.5t-111.5 -29.5q-46 0 -83.5 17t-64 45.5t-41 67t-14.5 81.5q0 51 19.5 96.5t53.5 80.5t80 55.5t99 20.5q66 0 106.5 -29.5t57.5 -74.5l10 94h65zM282 49q40 0 74.5 15.5t59 41.5t38.5 60t14 72q0 32 -10.5 60.5t-30 49.5
t-47.5 33.5t-64 12.5q-40 0 -74 -15.5t-59 -41.5t-39 -60t-14 -72q0 -32 10 -60.5t29.5 -49.5t48 -33.5t64.5 -12.5zM354 751q25 0 46 -9.5t36.5 -25t24 -36.5t8.5 -44q0 -27 -11.5 -52t-30.5 -44t-44.5 -30t-52.5 -11q-25 0 -46 9.5t-36 25t-23.5 36.5t-8.5 45
q0 28 11.5 52.5t30.5 43t44 29.5t52 11zM350 708q-18 0 -34.5 -7t-29 -19.5t-20 -29t-7.5 -34.5q0 -31 21 -53t54 -22q18 0 34.5 7t28.5 19.5t19.5 29t7.5 34.5q0 32 -20.5 53.5t-53.5 21.5z" />
    <glyph glyph-name="ae" unicode="&#xe6;" horiz-adv-x="916" 
d="M556 443l-7 -61q27 32 67.5 51.5t90.5 19.5q41 0 75.5 -13.5t59 -38t38.5 -58.5t14 -74q0 -19 -2.5 -32.5t-6.5 -29.5h-353q-4 -34 2.5 -63.5t23 -51t44 -34t66.5 -12.5q57 0 90.5 24t49.5 57h67q-9 -27 -28 -51.5t-46 -44t-61.5 -31t-75.5 -11.5q-53 0 -90 19.5
t-58 54.5l-7 -63h-65l10 93q-26 -45 -74.5 -74.5t-111.5 -29.5q-46 0 -83.5 17t-64 45.5t-41 67t-14.5 81.5q0 51 19.5 96.5t53.5 80.5t80 55.5t99 20.5q66 0 106.5 -29.5t57.5 -74.5l10 94h65zM700 397q-63 0 -107.5 -37.5t-54.5 -101.5h291q3 31 -5 57t-25 44t-42.5 28
t-56.5 10zM282 49q40 0 74.5 15.5t59 41.5t38.5 60t14 72q0 32 -10.5 60.5t-30 49.5t-47.5 33.5t-64 12.5q-40 0 -74 -15.5t-59 -41.5t-39 -60t-14 -72q0 -32 10 -60.5t29.5 -49.5t48 -33.5t64.5 -12.5z" />
    <glyph glyph-name="ccedilla" unicode="&#xe7;" horiz-adv-x="524" 
d="M219 -6q-38 7 -66.5 26.5t-47 47t-28 61t-9.5 69.5q0 48 16.5 94t48.5 82t78.5 58t107.5 22q51 0 87 -15.5t58 -40t31.5 -55.5t8.5 -62h-65q0 22 -6.5 42.5t-21.5 36.5t-39 25.5t-58 9.5q-45 0 -78.5 -16.5t-56 -43.5t-34 -62t-11.5 -72q0 -31 8.5 -58.5t26 -48.5t45 -33
t66.5 -12q60 0 96 28.5t51 74.5h65q-17 -67 -72.5 -110.5t-143.5 -50.5l-13 -1l-6 -62q18 23 56 23q32 0 52 -20.5t20 -52.5q0 -19 -7.5 -36.5t-21 -31t-32.5 -21.5t-42 -8q-15 0 -30.5 4.5t-28 13.5t-21 23.5t-9.5 35.5h43q2 -17 14 -28t33 -11q26 0 42.5 16t16.5 39
q0 19 -11.5 32t-34.5 13q-14 0 -27 -6t-24 -23h-37z" />
    <glyph glyph-name="egrave" unicode="&#xe8;" horiz-adv-x="519" 
d="M133 207q-2 -30 3.5 -59t21.5 -51.5t43.5 -36.5t69.5 -14q57 0 91 24t49 57h66q-9 -27 -27.5 -52t-45.5 -44t-62.5 -30.5t-77.5 -11.5q-50 0 -87 16.5t-61 44.5t-36 66t-12 81q0 54 17 100.5t48.5 81t75.5 54.5t97 20q44 0 79.5 -14t60 -38.5t38 -58t13.5 -73.5
q0 -19 -2.5 -32.5t-6.5 -29.5h-355zM303 402q-61 0 -107 -37.5t-56 -106.5h293q3 33 -5 59.5t-25 45t-43 29t-57 10.5zM203 647l37 52l235 -137l-37 -52z" />
    <glyph glyph-name="eacute" unicode="&#xe9;" horiz-adv-x="519" 
d="M133 207q-2 -30 3.5 -59t21.5 -51.5t43.5 -36.5t69.5 -14q57 0 91 24t49 57h66q-9 -27 -27.5 -52t-45.5 -44t-62.5 -30.5t-77.5 -11.5q-50 0 -87 16.5t-61 44.5t-36 66t-12 81q0 54 17 100.5t48.5 81t75.5 54.5t97 20q44 0 79.5 -14t60 -38.5t38 -58t13.5 -73.5
q0 -19 -2.5 -32.5t-6.5 -29.5h-355zM303 402q-61 0 -107 -37.5t-56 -106.5h293q3 33 -5 59.5t-25 45t-43 29t-57 10.5zM198 510l-25 52l263 137l25 -52z" />
    <glyph glyph-name="ecircumflex" unicode="&#xea;" horiz-adv-x="519" 
d="M133 207q-2 -30 3.5 -59t21.5 -51.5t43.5 -36.5t69.5 -14q57 0 91 24t49 57h66q-9 -27 -27.5 -52t-45.5 -44t-62.5 -30.5t-77.5 -11.5q-50 0 -87 16.5t-61 44.5t-36 66t-12 81q0 54 17 100.5t48.5 81t75.5 54.5t97 20q44 0 79.5 -14t60 -38.5t38 -58t13.5 -73.5
q0 -19 -2.5 -32.5t-6.5 -29.5h-355zM303 402q-61 0 -107 -37.5t-56 -106.5h293q3 33 -5 59.5t-25 45t-43 29t-57 10.5zM340 728l159 -150l-42 -44l-125 122l-148 -121l-35 43z" />
    <glyph glyph-name="edieresis" unicode="&#xeb;" horiz-adv-x="519" 
d="M133 207q-2 -30 3.5 -59t21.5 -51.5t43.5 -36.5t69.5 -14q57 0 91 24t49 57h66q-9 -27 -27.5 -52t-45.5 -44t-62.5 -30.5t-77.5 -11.5q-50 0 -87 16.5t-61 44.5t-36 66t-12 81q0 54 17 100.5t48.5 81t75.5 54.5t97 20q44 0 79.5 -14t60 -38.5t38 -58t13.5 -73.5
q0 -19 -2.5 -32.5t-6.5 -29.5h-355zM303 402q-61 0 -107 -37.5t-56 -106.5h293q3 33 -5 59.5t-25 45t-43 29t-57 10.5zM382 599q0 27 19.5 46.5t45.5 19.5q24 0 39 -16t15 -39q0 -27 -19.5 -46t-46.5 -19q-23 0 -38 15.5t-15 38.5zM152 599q0 27 19.5 46.5t45.5 19.5
q24 0 39 -16t15 -39q0 -27 -19.5 -46t-46.5 -19q-23 0 -38 15.5t-15 38.5z" />
    <glyph glyph-name="igrave" unicode="&#xec;" horiz-adv-x="231" 
d="M130 443h65l-47 -443h-65zM45 657l36 52l235 -137l-36 -52z" />
    <glyph glyph-name="iacute" unicode="&#xed;" horiz-adv-x="231" 
d="M129 443h65l-46 -443h-65zM62 520l-26 52l263 137l26 -52z" />
    <glyph glyph-name="icircumflex" unicode="&#xee;" horiz-adv-x="231" 
d="M130 443h65l-47 -443h-65zM192 728l160 -150l-43 -44l-124 122l-149 -121l-34 43z" />
    <glyph glyph-name="idieresis" unicode="&#xef;" horiz-adv-x="231" 
d="M130 443h65l-47 -443h-65zM229 600q0 27 20 46.5t46 19.5q24 0 39.5 -16t15.5 -39q0 -27 -20 -46t-46 -19q-24 0 -39.5 15.5t-15.5 38.5zM20 600q0 27 20 46.5t46 19.5q24 0 39 -16t15 -39q0 -27 -20 -46t-47 -19q-23 0 -38 15.5t-15 38.5z" />
    <glyph glyph-name="eth" unicode="&#xf0;" horiz-adv-x="563" 
d="M282 -11q-50 0 -89.5 17t-66.5 45.5t-41 66.5t-14 81q0 51 19.5 97t53.5 81t80 55.5t100 20.5q24 0 42.5 -5t28.5 -17l-57 112l-129 -67l-18 42l124 64l-59 118h78l43 -85l91 47l18 -41l-88 -47l105 -201q17 -32 27 -63.5t10 -68.5q0 -50 -19.5 -95.5t-54 -80.5
t-81.5 -55.5t-103 -20.5zM289 49q40 0 74 15.5t58.5 41.5t38.5 60t14 72q0 32 -10 60.5t-29.5 49.5t-47.5 33.5t-64 12.5q-41 0 -75 -15.5t-59 -41.5t-39 -60t-14 -72q0 -32 10.5 -60.5t30 -49.5t48 -33.5t64.5 -12.5z" />
    <glyph glyph-name="ntilde" unicode="&#xf1;" horiz-adv-x="562" 
d="M130 443h65l-11 -96q24 45 70 75.5t112 30.5q43 0 74.5 -14.5t50.5 -40.5t24 -60t0 -78l-27 -260h-65l25 241q3 33 -1 61t-17 48.5t-36 32.5t-56 12q-38 0 -67.5 -14.5t-50 -38.5t-33 -54t-15.5 -61l-24 -227h-65zM420 622q23 0 42 16t31 38l47 -24q-24 -42 -57 -62
t-68 -20q-24 0 -42 8.5t-32.5 18.5t-28.5 18.5t-30 8.5q-21 0 -39.5 -15t-31.5 -39l-45 29q26 40 58 58.5t65 18.5q25 0 42 -8.5t31.5 -18.5t27.5 -18.5t30 -8.5z" />
    <glyph glyph-name="ograve" unicode="&#xf2;" horiz-adv-x="552" 
d="M276 -11q-50 0 -89 17t-66 45.5t-41.5 66.5t-14.5 81q0 51 19.5 97t53.5 81t81 55.5t103 20.5q50 0 89.5 -16.5t66.5 -45t41.5 -67t14.5 -81.5q0 -51 -19.5 -97t-54 -81t-81.5 -55.5t-103 -20.5zM282 49q40 0 74.5 15.5t59 41.5t38.5 60t14 72q0 32 -10.5 60.5t-30 49.5
t-47.5 33.5t-64 12.5q-40 0 -74 -15.5t-59 -41.5t-39 -60t-14 -72q0 -32 10 -60.5t29.5 -49.5t48 -33.5t64.5 -12.5zM209 647l37 52l234 -137l-36 -52z" />
    <glyph glyph-name="oacute" unicode="&#xf3;" horiz-adv-x="552" 
d="M276 -11q-50 0 -89 17t-66 45.5t-41.5 66.5t-14.5 81q0 51 19.5 97t53.5 81t81 55.5t103 20.5q50 0 89.5 -16.5t66.5 -45t41.5 -67t14.5 -81.5q0 -51 -19.5 -97t-54 -81t-81.5 -55.5t-103 -20.5zM282 49q40 0 74.5 15.5t59 41.5t38.5 60t14 72q0 32 -10.5 60.5t-30 49.5
t-47.5 33.5t-64 12.5q-40 0 -74 -15.5t-59 -41.5t-39 -60t-14 -72q0 -32 10 -60.5t29.5 -49.5t48 -33.5t64.5 -12.5zM206 510l-26 52l264 137l25 -52z" />
    <glyph glyph-name="ocircumflex" unicode="&#xf4;" horiz-adv-x="552" 
d="M276 -11q-50 0 -89 17t-66 45.5t-41.5 66.5t-14.5 81q0 51 19.5 97t53.5 81t81 55.5t103 20.5q50 0 89.5 -16.5t66.5 -45t41.5 -67t14.5 -81.5q0 -51 -19.5 -97t-54 -81t-81.5 -55.5t-103 -20.5zM282 49q40 0 74.5 15.5t59 41.5t38.5 60t14 72q0 32 -10.5 60.5t-30 49.5
t-47.5 33.5t-64 12.5q-40 0 -74 -15.5t-59 -41.5t-39 -60t-14 -72q0 -32 10 -60.5t29.5 -49.5t48 -33.5t64.5 -12.5zM352 729l159 -151l-43 -43l-124 121l-149 -121l-34 43z" />
    <glyph glyph-name="otilde" unicode="&#xf5;" horiz-adv-x="552" 
d="M276 -11q-50 0 -89 17t-66 45.5t-41.5 66.5t-14.5 81q0 51 19.5 97t53.5 81t81 55.5t103 20.5q50 0 89.5 -16.5t66.5 -45t41.5 -67t14.5 -81.5q0 -51 -19.5 -97t-54 -81t-81.5 -55.5t-103 -20.5zM282 49q40 0 74.5 15.5t59 41.5t38.5 60t14 72q0 32 -10.5 60.5t-30 49.5
t-47.5 33.5t-64 12.5q-40 0 -74 -15.5t-59 -41.5t-39 -60t-14 -72q0 -32 10 -60.5t29.5 -49.5t48 -33.5t64.5 -12.5zM409 622q23 0 41.5 16t30.5 38l47 -24q-24 -42 -57 -62t-68 -20q-24 0 -42 8.5t-32.5 18.5t-28.5 18.5t-30 8.5q-21 0 -39.5 -15t-31.5 -39l-45 29
q26 40 58 58.5t65 18.5q25 0 42.5 -8.5t32 -18.5t27.5 -18.5t30 -8.5z" />
    <glyph glyph-name="odieresis" unicode="&#xf6;" horiz-adv-x="552" 
d="M218 546q-23 0 -38.5 15.5t-15.5 38.5q0 27 20 46.5t46 19.5q24 0 39.5 -16t15.5 -39q0 -27 -20 -46t-47 -19zM394 600q0 27 20 46.5t46 19.5q24 0 39 -16t15 -39q0 -27 -19.5 -46t-46.5 -19q-23 0 -38.5 15.5t-15.5 38.5zM276 -11q-50 0 -89 17t-66 45.5t-41.5 66.5
t-14.5 81q0 51 19.5 97t53.5 81t81 55.5t103 20.5q50 0 89.5 -16.5t66.5 -45t41.5 -67t14.5 -81.5q0 -51 -19.5 -97t-54 -81t-81.5 -55.5t-103 -20.5zM282 49q40 0 74.5 15.5t59 41.5t38.5 60t14 72q0 32 -10.5 60.5t-30 49.5t-47.5 33.5t-64 12.5q-40 0 -74 -15.5
t-59 -41.5t-39 -60t-14 -72q0 -32 10 -60.5t29.5 -49.5t48 -33.5t64.5 -12.5z" />
    <glyph glyph-name="divide" unicode="&#xf7;" 
d="M105 205l6 59h404l-6 -59h-404zM266 377q0 27 20 46.5t46 19.5q24 0 39 -16t15 -39q0 -27 -19.5 -46t-45.5 -19q-24 0 -39.5 15.5t-15.5 38.5zM236 86q0 12 5.5 24.5t14.5 22t21 16t25 6.5q12 0 22 -5.5t17 -14t11 -19t4 -20.5q0 -23 -20 -42t-47 -19q-25 0 -39 16
t-14 35z" />
    <glyph glyph-name="oslash" unicode="&#xf8;" horiz-adv-x="552" 
d="M426 429q52 -25 80 -75.5t28 -111.5q0 -50 -19 -96t-53.5 -81t-82 -55.5t-104.5 -20.5q-23 0 -42 3.5t-36 9.5l-37 -70l-41 18l37 71q-44 27 -67.5 74.5t-23.5 103.5q0 51 19.5 97t53.5 81t81 55.5t102 20.5q18 0 34 -2t31 -6l34 64l41 -17zM278 49q43 0 78 15.5t60 41
t38.5 59.5t13.5 72q0 44 -18.5 79.5t-53.5 55.5l-169 -315q12 -5 25 -6.5t26 -1.5zM130 205q0 -39 15 -73t43 -54l167 311q-10 2 -18.5 3.5t-20.5 1.5q-40 0 -74 -15.5t-59 -41.5t-39 -60t-14 -72z" />
    <glyph glyph-name="ugrave" unicode="&#xf9;" horiz-adv-x="560" 
d="M477 0h-65l10 96q-25 -48 -71 -77.5t-109 -29.5q-43 0 -75 15t-51 41t-24 60t0 78l27 260h66l-25 -241q-3 -33 1 -61t17 -48.5t35.5 -32.5t55.5 -12q38 0 67.5 14.5t50 38.5t33 54t15.5 61l24 227h65zM210 647l37 52l234 -137l-36 -52z" />
    <glyph glyph-name="uacute" unicode="&#xfa;" horiz-adv-x="560" 
d="M477 0h-65l10 96q-25 -48 -71 -77.5t-109 -29.5q-43 0 -75 15t-51 41t-24 60t0 78l27 260h66l-25 -241q-3 -33 1 -61t17 -48.5t35.5 -32.5t55.5 -12q38 0 67.5 14.5t50 38.5t33 54t15.5 61l24 227h65zM224 510l-26 52l264 137l25 -52z" />
    <glyph glyph-name="ucircumflex" unicode="&#xfb;" horiz-adv-x="561" 
d="M477 0h-65l10 96q-25 -48 -71 -77.5t-109 -29.5q-43 0 -75 15t-51 41t-24 60t0 78l27 260h66l-25 -241q-3 -33 1 -61t17 -48.5t35.5 -32.5t55.5 -12q38 0 67.5 14.5t50 38.5t33 54t15.5 61l24 227h65zM360 728l159 -150l-43 -44l-124 122l-148 -121l-35 43z" />
    <glyph glyph-name="udieresis" unicode="&#xfc;" horiz-adv-x="560" 
d="M477 0h-65l10 96q-25 -48 -71 -77.5t-109 -29.5q-43 0 -75 15t-51 41t-24 60t0 78l27 260h66l-25 -241q-3 -33 1 -61t17 -48.5t35.5 -32.5t55.5 -12q38 0 67.5 14.5t50 38.5t33 54t15.5 61l24 227h65zM395 600q0 27 19.5 46.5t45.5 19.5q24 0 39 -16t15 -39
q0 -27 -19.5 -46t-46.5 -19q-23 0 -38 15.5t-15 38.5zM165 600q0 27 19.5 46.5t45.5 19.5q24 0 39 -16t15 -39q0 -27 -19.5 -46t-46.5 -19q-23 0 -38 15.5t-15 38.5z" />
    <glyph glyph-name="yacute" unicode="&#xfd;" horiz-adv-x="568" 
d="M256 -267q-205 0 -188 202h66q-4 -76 28 -111t101 -35q32 0 58.5 8t46 27t32 49t17.5 75l16 148q-24 -45 -68 -76t-114 -31q-86 0 -126 54q-17 23 -22.5 56t0.5 89l27 255h66l-25 -236q-8 -72 15 -115.5t91 -43.5q40 0 70 14.5t51 38.5t33 54t15 61l24 227h64l-52 -495
q-12 -114 -69.5 -164.5t-156.5 -50.5zM234 510l-27 52l263 137l27 -52z" />
    <glyph glyph-name="thorn" unicode="&#xfe;" horiz-adv-x="590" 
d="M56 -257l101 957h65l-37 -351q26 48 75.5 76t110.5 28q46 0 83.5 -16.5t64 -45t41 -67t14.5 -81.5q0 -51 -19.5 -97t-53 -81t-79.5 -55.5t-99 -20.5q-66 0 -107.5 30t-57.5 74l-37 -350h-65zM323 49q40 0 74 15.5t59 41.5t38.5 60t13.5 72q0 32 -10 60.5t-29.5 49.5
t-48 33.5t-64.5 12.5q-41 0 -75 -15.5t-58.5 -41.5t-38.5 -60t-14 -72q0 -32 10.5 -60.5t30 -49.5t48 -33.5t64.5 -12.5z" />
    <glyph glyph-name="ydieresis" unicode="&#xff;" horiz-adv-x="568" 
d="M256 -267q-205 0 -188 202h66q-4 -76 28 -111t101 -35q32 0 58.5 8t46 27t32 49t17.5 75l16 148q-24 -45 -68 -76t-114 -31q-86 0 -126 54q-17 23 -22.5 56t0.5 89l27 255h66l-25 -236q-8 -72 15 -115.5t91 -43.5q40 0 70 14.5t51 38.5t33 54t15 61l24 227h64l-52 -495
q-12 -114 -69.5 -164.5t-156.5 -50.5zM413 599q0 27 19 45.5t45 18.5q23 0 37.5 -15t14.5 -38q0 -26 -19 -44.5t-45 -18.5q-23 0 -37.5 14.5t-14.5 37.5zM183 599q0 26 18.5 45t44.5 19q23 0 38 -15t15 -38q0 -26 -19 -44.5t-45 -18.5q-23 0 -37.5 14.5t-14.5 37.5z" />
    <glyph glyph-name="Amacron" unicode="&#x100;" horiz-adv-x="546" 
d="M540 0h-72l-30 125h-304l-56 -125h-72l315 700h52zM162 187h262l-89 404zM536 800h-358l6 59h358z" />
    <glyph glyph-name="amacron" unicode="&#x101;" horiz-adv-x="592" 
d="M556 443l-47 -443h-65l10 93q-26 -45 -74.5 -74.5t-111.5 -29.5q-46 0 -83.5 17t-64 45.5t-41 67t-14.5 81.5q0 51 19.5 96.5t53.5 80.5t80 55.5t99 20.5q66 0 106.5 -29.5t57.5 -74.5l10 94h65zM282 49q40 0 74.5 15.5t59 41.5t38.5 60t14 72q0 32 -10.5 60.5t-30 49.5
t-47.5 33.5t-64 12.5q-40 0 -74 -15.5t-59 -41.5t-39 -60t-14 -72q0 -32 10 -60.5t29.5 -49.5t48 -33.5t64.5 -12.5zM511 576h-358l6 59h358z" />
    <glyph glyph-name="Abreve" unicode="&#x102;" horiz-adv-x="546" 
d="M540 0h-72l-30 125h-304l-56 -125h-72l315 700h52zM162 187h262l-89 404zM361 824q48 0 84 24.5t51 69.5h62q-9 -33 -28.5 -59.5t-46.5 -46t-60 -30t-69 -10.5t-66.5 10.5t-53 30t-36.5 46t-16 59.5h62q6 -45 37 -69.5t80 -24.5z" />
    <glyph glyph-name="abreve" unicode="&#x103;" horiz-adv-x="592" 
d="M556 443l-47 -443h-65l10 93q-26 -45 -74.5 -74.5t-111.5 -29.5q-46 0 -83.5 17t-64 45.5t-41 67t-14.5 81.5q0 51 19.5 96.5t53.5 80.5t80 55.5t99 20.5q66 0 106.5 -29.5t57.5 -74.5l10 94h65zM282 49q40 0 74.5 15.5t59 41.5t38.5 60t14 72q0 32 -10.5 60.5t-30 49.5
t-47.5 33.5t-64 12.5q-40 0 -74 -15.5t-59 -41.5t-39 -60t-14 -72q0 -32 10 -60.5t29.5 -49.5t48 -33.5t64.5 -12.5zM338 606q47 0 82 24.5t50 69.5h61q-9 -33 -28 -59.5t-45.5 -46t-58.5 -30t-67 -10.5q-71 0 -116.5 40t-50.5 106h62q6 -45 35 -69.5t76 -24.5z" />
    <glyph glyph-name="Aogonek" unicode="&#x104;" horiz-adv-x="546" 
d="M162 187h262l-89 404zM538 -199q-15 -5 -36 -9t-44 -4q-52 0 -77.5 24.5t-25.5 60.5q0 40 29.5 70.5t83.5 56.5l-30 125h-304l-56 -125h-72l315 700h52l167 -700h-23q-43 -20 -70 -44.5t-27 -59.5q0 -24 15 -40.5t46 -16.5q14 0 31.5 3.5t31.5 8.5z" />
    <glyph glyph-name="aogonek" unicode="&#x105;" horiz-adv-x="592" 
d="M509 0h-14q-45 -20 -73.5 -46t-28.5 -61q0 -23 14.5 -38.5t44.5 -15.5q14 0 32 3.5t32 8.5l-7 -50q-15 -5 -36.5 -9t-44.5 -4q-53 0 -79 24.5t-26 61.5q0 42 32 71t89 58l10 90q-26 -45 -74.5 -74.5t-111.5 -29.5q-46 0 -83.5 17t-64 45.5t-41 67t-14.5 81.5
q0 51 19.5 96.5t53.5 80.5t80 55.5t99 20.5q66 0 106.5 -29.5t57.5 -74.5l10 94h65zM282 49q40 0 74.5 15.5t59 41.5t38.5 60t14 72q0 32 -10.5 60.5t-30 49.5t-47.5 33.5t-64 12.5q-40 0 -74 -15.5t-59 -41.5t-39 -60t-14 -72q0 -32 10 -60.5t29.5 -49.5t48 -33.5
t64.5 -12.5z" />
    <glyph glyph-name="Cacute" unicode="&#x106;" horiz-adv-x="775" 
d="M755 206q-19 -47 -52.5 -87.5t-78.5 -70t-100.5 -46.5t-117.5 -17q-78 0 -139 26.5t-103 72t-64 105.5t-22 127q0 76 28 148t80 128t126 89.5t167 33.5q71 0 125.5 -20t92.5 -54t59.5 -80t25.5 -97h-71q-6 40 -23.5 75t-47.5 60t-71.5 39.5t-94.5 14.5q-75 0 -135.5 -28
t-102.5 -74.5t-65 -106.5t-23 -123q0 -56 18 -106t52.5 -87.5t84 -59t112.5 -21.5q92 0 161.5 44.5t103.5 114.5h75zM367 749l-25 53l263 137l26 -53z" />
    <glyph glyph-name="cacute" unicode="&#x107;" horiz-adv-x="524" 
d="M439 281q0 22 -6.5 42.5t-21.5 36.5t-39 25.5t-58 9.5q-45 0 -78.5 -16.5t-56 -43.5t-34 -62t-11.5 -72q0 -31 8.5 -58.5t26 -48.5t45 -33t66.5 -12q60 0 96 28.5t51 74.5h65q-9 -35 -28 -65t-47.5 -52t-65 -34t-80.5 -12q-53 0 -91 17t-63 46t-37 67t-12 79
q0 49 16.5 95t48.5 82t78.5 57.5t107.5 21.5q52 0 87.5 -15.5t57.5 -40.5t31.5 -55.5t8.5 -61.5h-65zM212 510l-27 52l264 137l26 -52z" />
    <glyph glyph-name="Ccircumflex" unicode="&#x108;" horiz-adv-x="775" 
d="M755 206q-19 -47 -52.5 -87.5t-78.5 -70t-100.5 -46.5t-117.5 -17q-78 0 -139 26.5t-103 72t-64 105.5t-22 127q0 76 28 148t80 128t126 89.5t167 33.5q71 0 125.5 -20t92.5 -54t59.5 -80t25.5 -97h-71q-6 40 -23.5 75t-47.5 60t-71.5 39.5t-94.5 14.5q-75 0 -135.5 -28
t-102.5 -74.5t-65 -106.5t-23 -123q0 -56 18 -106t52.5 -87.5t84 -59t112.5 -21.5q92 0 161.5 44.5t103.5 114.5h75zM496 943l161 -151l-43 -43l-125 121l-149 -121l-34 43z" />
    <glyph glyph-name="ccircumflex" unicode="&#x109;" horiz-adv-x="524" 
d="M439 281q0 22 -6.5 42.5t-21.5 36.5t-39 25.5t-58 9.5q-45 0 -78.5 -16.5t-56 -43.5t-34 -62t-11.5 -72q0 -31 8.5 -58.5t26 -48.5t45 -33t66.5 -12q60 0 96 28.5t51 74.5h65q-9 -35 -28 -65t-47.5 -52t-65 -34t-80.5 -12q-53 0 -91 17t-63 46t-37 67t-12 79
q0 49 16.5 95t48.5 82t78.5 57.5t107.5 21.5q52 0 87.5 -15.5t57.5 -40.5t31.5 -55.5t8.5 -61.5h-65zM347 728l160 -150l-43 -44l-124 122l-150 -121l-33 43z" />
    <glyph glyph-name="Cdotaccent" unicode="&#x10a;" horiz-adv-x="775" 
d="M755 206q-19 -47 -52.5 -87.5t-78.5 -70t-100.5 -46.5t-117.5 -17q-78 0 -139 26.5t-103 72t-64 105.5t-22 127q0 76 28 148t80 128t126 89.5t167 33.5q71 0 125.5 -20t92.5 -54t59.5 -80t25.5 -97h-71q-6 40 -23.5 75t-47.5 60t-71.5 39.5t-94.5 14.5q-75 0 -135.5 -28
t-102.5 -74.5t-65 -106.5t-23 -123q0 -56 18 -106t52.5 -87.5t84 -59t112.5 -21.5q92 0 161.5 44.5t103.5 114.5h75zM425 831q0 27 19.5 46t46.5 19q23 0 38.5 -15.5t15.5 -38.5q0 -27 -20 -46t-47 -19q-23 0 -38 15.5t-15 38.5z" />
    <glyph glyph-name="cdotaccent" unicode="&#x10b;" horiz-adv-x="524" 
d="M439 281q0 22 -6.5 42.5t-21.5 36.5t-39 25.5t-58 9.5q-45 0 -78.5 -16.5t-56 -43.5t-34 -62t-11.5 -72q0 -31 8.5 -58.5t26 -48.5t45 -33t66.5 -12q60 0 96 28.5t51 74.5h65q-9 -35 -28 -65t-47.5 -52t-65 -34t-80.5 -12q-53 0 -91 17t-63 46t-37 67t-12 79
q0 49 16.5 95t48.5 82t78.5 57.5t107.5 21.5q52 0 87.5 -15.5t57.5 -40.5t31.5 -55.5t8.5 -61.5h-65zM272 599q0 27 20 46.5t46 19.5q24 0 39 -16t15 -39q0 -27 -19.5 -46t-46.5 -19q-23 0 -38.5 15.5t-15.5 38.5z" />
    <glyph glyph-name="Ccaron" unicode="&#x10c;" horiz-adv-x="775" 
d="M755 206q-19 -47 -52.5 -87.5t-78.5 -70t-100.5 -46.5t-117.5 -17q-78 0 -139 26.5t-103 72t-64 105.5t-22 127q0 76 28 148t80 128t126 89.5t167 33.5q71 0 125.5 -20t92.5 -54t59.5 -80t25.5 -97h-71q-6 40 -23.5 75t-47.5 60t-71.5 39.5t-94.5 14.5q-75 0 -135.5 -28
t-102.5 -74.5t-65 -106.5t-23 -123q0 -56 18 -106t52.5 -87.5t84 -59t112.5 -21.5q92 0 161.5 44.5t103.5 114.5h75zM317 900l43 42l119 -119l144 120l35 -43l-188 -151z" />
    <glyph glyph-name="ccaron" unicode="&#x10d;" horiz-adv-x="524" 
d="M439 281q0 22 -6.5 42.5t-21.5 36.5t-39 25.5t-58 9.5q-45 0 -78.5 -16.5t-56 -43.5t-34 -62t-11.5 -72q0 -31 8.5 -58.5t26 -48.5t45 -33t66.5 -12q60 0 96 28.5t51 74.5h65q-9 -35 -28 -65t-47.5 -52t-65 -34t-80.5 -12q-53 0 -91 17t-63 46t-37 67t-12 79
q0 49 16.5 95t48.5 82t78.5 57.5t107.5 21.5q52 0 87.5 -15.5t57.5 -40.5t31.5 -55.5t8.5 -61.5h-65zM170 683l43 42l119 -119l145 120l34 -43l-187 -151z" />
    <glyph glyph-name="Dcaron" unicode="&#x10e;" horiz-adv-x="694" 
d="M362 700q81 0 142 -27t102.5 -71t62.5 -101.5t21 -118.5q0 -71 -28 -139.5t-80 -122.5t-126.5 -87t-167.5 -33h-205l74 700h205zM218 638l-60 -576h137q75 0 135 27t102 71.5t64.5 101t22.5 115.5q0 50 -17 97t-50 83.5t-82.5 58.5t-114.5 22h-137zM259 900l43 42
l119 -119l144 120l35 -43l-188 -151z" />
    <glyph glyph-name="dcaron" unicode="&#x10f;" horiz-adv-x="694" 
d="M282 49q40 0 74.5 15.5t59 41.5t38.5 60t14 72q0 32 -10.5 60.5t-30 49.5t-47.5 33.5t-64 12.5q-40 0 -74 -15.5t-59 -41.5t-39 -60t-14 -72q0 -32 10 -60.5t29.5 -49.5t48 -33.5t64.5 -12.5zM518 700h65l-74 -700h-65l10 93q-26 -45 -74.5 -74.5t-111.5 -29.5
q-46 0 -83.5 17t-64 45.5t-41 67t-14.5 81.5q0 51 19.5 96.5t53.5 80.5t80 55.5t99 20.5q66 0 106.5 -29.5t57.5 -74.5zM627 655q0 26 19.5 45.5t48.5 19.5q31 0 48.5 -23t17.5 -68q0 -66 -39 -100t-105 -34l4 35q57 0 73 41q8 14 9.5 24t0.5 17q-8 -8 -26 -8
q-23 0 -37 14.5t-14 36.5z" />
    <glyph glyph-name="Dcroat" unicode="&#x110;" horiz-adv-x="694" 
d="M362 700q81 0 142 -27t102.5 -71t62.5 -101.5t21 -118.5q0 -71 -28 -139.5t-80 -122.5t-126.5 -87t-167.5 -33h-205l34 323h-144l6 59h144l34 318h205zM331 323h-146l-27 -261h137q75 0 135 27t102.5 71.5t65 101t22.5 115.5q0 50 -17 97t-50.5 83.5t-83 58.5t-114.5 22
h-137l-27 -256h146z" />
    <glyph glyph-name="dcroat" unicode="&#x111;" horiz-adv-x="592" 
d="M628 542h-62l-57 -542h-65l10 93q-26 -45 -74.5 -74.5t-111.5 -29.5q-46 0 -83.5 17t-64 45.5t-41 67t-14.5 81.5q0 51 19.5 96.5t53.5 80.5t80 55.5t99 20.5q66 0 106.5 -29.5t57.5 -74.5l20 193h-119l5 46h119l12 112h65l-12 -112h62zM282 49q40 0 74.5 15.5t59 41.5
t38.5 60t14 72q0 32 -10.5 60.5t-30 49.5t-47.5 33.5t-64 12.5q-40 0 -74 -15.5t-59 -41.5t-39 -60t-14 -72q0 -32 10 -60.5t29.5 -49.5t48 -33.5t64.5 -12.5z" />
    <glyph glyph-name="Emacron" unicode="&#x112;" horiz-adv-x="543" 
d="M218 638l-27 -259h314l-7 -62h-314l-26 -255h314l-7 -62h-382l74 700h382l-7 -62h-314zM535 800h-358l6 59h358z" />
    <glyph glyph-name="emacron" unicode="&#x113;" horiz-adv-x="519" 
d="M133 207q-2 -30 3.5 -59t21.5 -51.5t43.5 -36.5t69.5 -14q57 0 91 24t49 57h66q-9 -27 -27.5 -52t-45.5 -44t-62.5 -30.5t-77.5 -11.5q-50 0 -87 16.5t-61 44.5t-36 66t-12 81q0 54 17 100.5t48.5 81t75.5 54.5t97 20q44 0 79.5 -14t60 -38.5t38 -58t13.5 -73.5
q0 -19 -2.5 -32.5t-6.5 -29.5h-355zM303 402q-61 0 -107 -37.5t-56 -106.5h293q3 33 -5 59.5t-25 45t-43 29t-57 10.5zM505 576h-358l6 59h358z" />
    <glyph glyph-name="Ebreve" unicode="&#x114;" horiz-adv-x="543" 
d="M218 638l-27 -259h314l-7 -62h-314l-26 -255h314l-7 -62h-382l74 700h382l-7 -62h-314zM362 824q48 0 84 24.5t51 69.5h62q-9 -33 -28.5 -59.5t-46.5 -46t-60 -30t-69 -10.5t-66.5 10.5t-53.5 30t-37 46t-16 59.5h63q6 -45 37 -69.5t80 -24.5z" />
    <glyph glyph-name="ebreve" unicode="&#x115;" horiz-adv-x="519" 
d="M133 207q-2 -30 3.5 -59t21.5 -51.5t43.5 -36.5t69.5 -14q57 0 91 24t49 57h66q-9 -27 -27.5 -52t-45.5 -44t-62.5 -30.5t-77.5 -11.5q-50 0 -87 16.5t-61 44.5t-36 66t-12 81q0 54 17 100.5t48.5 81t75.5 54.5t97 20q44 0 79.5 -14t60 -38.5t38 -58t13.5 -73.5
q0 -19 -2.5 -32.5t-6.5 -29.5h-355zM303 402q-61 0 -107 -37.5t-56 -106.5h293q3 33 -5 59.5t-25 45t-43 29t-57 10.5zM328 606q47 0 82 24.5t50 69.5h61q-9 -33 -28 -59.5t-45 -46t-58 -30t-67 -10.5t-65 10.5t-52 30t-35.5 46t-15.5 59.5h61q6 -45 35.5 -69.5t76.5 -24.5z
" />
    <glyph glyph-name="Edotaccent" unicode="&#x116;" horiz-adv-x="543" 
d="M218 638l-27 -259h314l-7 -62h-314l-26 -255h314l-7 -62h-382l74 700h382l-7 -62h-314zM299 831q0 27 19.5 46.5t45.5 19.5q24 0 39.5 -16t15.5 -39q0 -28 -20 -46.5t-46 -18.5q-24 0 -39 15.5t-15 38.5z" />
    <glyph glyph-name="edotaccent" unicode="&#x117;" horiz-adv-x="519" 
d="M133 207q-2 -30 3.5 -59t21.5 -51.5t43.5 -36.5t69.5 -14q57 0 91 24t49 57h66q-9 -27 -27.5 -52t-45.5 -44t-62.5 -30.5t-77.5 -11.5q-50 0 -87 16.5t-61 44.5t-36 66t-12 81q0 54 17 100.5t48.5 81t75.5 54.5t97 20q44 0 79.5 -14t60 -38.5t38 -58t13.5 -73.5
q0 -19 -2.5 -32.5t-6.5 -29.5h-355zM303 402q-61 0 -107 -37.5t-56 -106.5h293q3 33 -5 59.5t-25 45t-43 29t-57 10.5zM266 599q0 27 19.5 46.5t45.5 19.5q24 0 39.5 -16t15.5 -39q0 -28 -20 -46.5t-46 -18.5q-24 0 -39 15.5t-15 38.5z" />
    <glyph glyph-name="Eogonek" unicode="&#x118;" horiz-adv-x="543" 
d="M83 0l74 700h382l-7 -62h-314l-27 -259h314l-7 -62h-314l-26 -255h314l-7 -62h-79q-32 -22 -53.5 -47.5t-21.5 -54.5q0 -24 16 -41.5t50 -17.5q16 0 36 4t35 10l-7 -50q-16 -5 -39.5 -10t-48.5 -5q-55 0 -81 26t-26 63q0 35 22.5 63.5t70.5 59.5h-256z" />
    <glyph glyph-name="eogonek" unicode="&#x119;" horiz-adv-x="519" 
d="M357 -197q-17 -5 -40.5 -10t-48.5 -5q-55 0 -80.5 26t-25.5 63q0 32 19 59t60 56q-44 4 -76.5 22t-54 45.5t-32 63.5t-10.5 76q0 53 17 99t48.5 80.5t75.5 54.5t97 20q44 0 79.5 -14t60 -38.5t38 -58t13.5 -73.5q0 -19 -2.5 -32.5t-6.5 -29.5h-353q-3 -32 2.5 -61t22 -51
t44 -35.5t67.5 -13.5q56 0 90 24t50 57h66q-9 -26 -26 -49t-41 -42t-55 -31t-68 -15q-27 -20 -43.5 -43t-16.5 -49q0 -24 15.5 -41.5t49.5 -17.5q16 0 36 4t35 10zM303 402q-30 0 -57.5 -9.5t-49.5 -28t-37 -45.5t-20 -61h293q4 33 -4 59.5t-25.5 45t-43 29t-56.5 10.5z" />
    <glyph glyph-name="Ecaron" unicode="&#x11a;" horiz-adv-x="543" 
d="M218 638l-27 -259h314l-7 -62h-314l-26 -255h314l-7 -62h-382l74 700h382l-7 -62h-314zM195 900l43 42l119 -119l144 120l35 -43l-187 -151z" />
    <glyph glyph-name="ecaron" unicode="&#x11b;" horiz-adv-x="519" 
d="M133 207q-2 -30 3.5 -59t21.5 -51.5t43.5 -36.5t69.5 -14q57 0 91 24t49 57h66q-9 -27 -27.5 -52t-45.5 -44t-62.5 -30.5t-77.5 -11.5q-50 0 -87 16.5t-61 44.5t-36 66t-12 81q0 54 17 100.5t48.5 81t75.5 54.5t97 20q44 0 79.5 -14t60 -38.5t38 -58t13.5 -73.5
q0 -19 -2.5 -32.5t-6.5 -29.5h-355zM303 402q-61 0 -107 -37.5t-56 -106.5h293q3 33 -5 59.5t-25 45t-43 29t-57 10.5zM164 683l44 42l118 -119l145 120l33 -43l-187 -151z" />
    <glyph glyph-name="Gcircumflex" unicode="&#x11c;" horiz-adv-x="833" 
d="M497 324h342l-7 -62h-74q-14 -61 -44.5 -112t-75.5 -87.5t-104 -57t-129 -20.5q-83 0 -144.5 27t-102 72t-61 104t-20.5 123q0 78 29 151t81 129t125 90t161 34q58 0 105.5 -15t83 -41.5t56.5 -62t26 -77.5h-70q-5 28 -22 52.5t-44 42.5t-63 28.5t-79 10.5
q-71 0 -130 -28t-101 -75t-65 -107.5t-23 -124.5q0 -53 16 -102t49 -86.5t83 -60t118 -22.5q57 0 103 16.5t80 45t56.5 68t33.5 85.5h-196zM500 943l160 -151l-43 -43l-124 121l-149 -121l-34 43z" />
    <glyph glyph-name="gcircumflex" unicode="&#x11d;" horiz-adv-x="590" 
d="M316 394q-41 0 -75 -15.5t-58.5 -41.5t-38.5 -60t-14 -72q0 -32 10 -60.5t29.5 -49.5t48 -33.5t64.5 -12.5q40 0 74.5 15.5t59 41.5t38.5 60t14 72q0 32 -10.5 60.5t-30 49.5t-47.5 33.5t-64 12.5zM505 -34q-7 -63 -28 -107.5t-54 -72.5t-76.5 -40.5t-94.5 -12.5
q-62 0 -103 16.5t-65.5 44.5t-34.5 65t-8 78h66q-1 -28 5.5 -54t23 -46.5t45.5 -32.5t74 -12q37 0 68.5 9.5t55.5 30t40 53.5t21 81l14 128q-27 -48 -76 -76.5t-110 -28.5q-46 0 -83.5 17t-64 45.5t-41 67t-14.5 81.5q0 51 19.5 96.5t53 80.5t79.5 55.5t99 20.5
q66 0 107 -29.5t58 -74.5l9 94h65zM348 728l160 -150l-43 -44l-124 122l-149 -121l-34 43z" />
    <glyph glyph-name="Gbreve" unicode="&#x11e;" horiz-adv-x="833" 
d="M497 324h342l-7 -62h-74q-14 -61 -44.5 -112t-75.5 -87.5t-104 -57t-129 -20.5q-83 0 -144.5 27t-102 72t-61 104t-20.5 123q0 78 29 151t81 129t125 90t161 34q58 0 105.5 -15t83 -41.5t56.5 -62t26 -77.5h-70q-5 28 -22 52.5t-44 42.5t-63 28.5t-79 10.5
q-71 0 -130 -28t-101 -75t-65 -107.5t-23 -124.5q0 -53 16 -102t49 -86.5t83 -60t118 -22.5q57 0 103 16.5t80 45t56.5 68t33.5 85.5h-196zM481 824q48 0 84.5 24.5t51.5 69.5h62q-9 -33 -28.5 -59.5t-46.5 -46t-60 -30t-69 -10.5t-66.5 10.5t-53 30t-36.5 46t-16 59.5h62
q6 -45 37 -69.5t79 -24.5z" />
    <glyph glyph-name="gbreve" unicode="&#x11f;" horiz-adv-x="590" 
d="M316 394q-41 0 -75 -15.5t-58.5 -41.5t-38.5 -60t-14 -72q0 -32 10 -60.5t29.5 -49.5t48 -33.5t64.5 -12.5q40 0 74.5 15.5t59 41.5t38.5 60t14 72q0 32 -10.5 60.5t-30 49.5t-47.5 33.5t-64 12.5zM505 -34q-7 -63 -28 -107.5t-54 -72.5t-76.5 -40.5t-94.5 -12.5
q-62 0 -103 16.5t-65.5 44.5t-34.5 65t-8 78h66q-1 -28 5.5 -54t23 -46.5t45.5 -32.5t74 -12q37 0 68.5 9.5t55.5 30t40 53.5t21 81l14 128q-27 -48 -76 -76.5t-110 -28.5q-46 0 -83.5 17t-64 45.5t-41 67t-14.5 81.5q0 51 19.5 96.5t53 80.5t79.5 55.5t99 20.5
q66 0 107 -29.5t58 -74.5l9 94h65zM341 606q46 0 80.5 24.5t49.5 69.5h62q-9 -33 -28 -59.5t-45.5 -46t-58.5 -30t-67 -10.5t-64.5 10.5t-52 30t-36 46t-15.5 59.5h62q6 -45 36 -69.5t77 -24.5z" />
    <glyph glyph-name="Gdotaccent" unicode="&#x120;" horiz-adv-x="833" 
d="M497 324h342l-7 -62h-74q-14 -61 -44.5 -112t-75.5 -87.5t-104 -57t-129 -20.5q-83 0 -144.5 27t-102 72t-61 104t-20.5 123q0 78 29 151t81 129t125 90t161 34q58 0 105.5 -15t83 -41.5t56.5 -62t26 -77.5h-70q-5 28 -22 52.5t-44 42.5t-63 28.5t-79 10.5
q-71 0 -130 -28t-101 -75t-65 -107.5t-23 -124.5q0 -53 16 -102t49 -86.5t83 -60t118 -22.5q57 0 103 16.5t80 45t56.5 68t33.5 85.5h-196zM428 831q0 27 20 46.5t46 19.5q24 0 39.5 -16t15.5 -39q0 -27 -20.5 -46t-46.5 -19q-24 0 -39 15.5t-15 38.5z" />
    <glyph glyph-name="gdotaccent" unicode="&#x121;" horiz-adv-x="590" 
d="M316 394q-41 0 -75 -15.5t-58.5 -41.5t-38.5 -60t-14 -72q0 -32 10 -60.5t29.5 -49.5t48 -33.5t64.5 -12.5q40 0 74.5 15.5t59 41.5t38.5 60t14 72q0 32 -10.5 60.5t-30 49.5t-47.5 33.5t-64 12.5zM505 -34q-7 -63 -28 -107.5t-54 -72.5t-76.5 -40.5t-94.5 -12.5
q-62 0 -103 16.5t-65.5 44.5t-34.5 65t-8 78h66q-1 -28 5.5 -54t23 -46.5t45.5 -32.5t74 -12q37 0 68.5 9.5t55.5 30t40 53.5t21 81l14 128q-27 -48 -76 -76.5t-110 -28.5q-46 0 -83.5 17t-64 45.5t-41 67t-14.5 81.5q0 51 19.5 96.5t53 80.5t79.5 55.5t99 20.5
q66 0 107 -29.5t58 -74.5l9 94h65zM271 599q0 27 20 46.5t46 19.5q24 0 39.5 -16t15.5 -39q0 -28 -20.5 -46.5t-46.5 -18.5q-24 0 -39 15.5t-15 38.5z" />
    <glyph glyph-name="Gcommaaccent" unicode="&#x122;" horiz-adv-x="833" 
d="M497 324h342l-7 -62h-74q-14 -61 -44.5 -112t-75.5 -87.5t-104 -57t-129 -20.5q-83 0 -144.5 27t-102 72t-61 104t-20.5 123q0 78 29 151t81 129t125 90t161 34q58 0 105.5 -15t83 -41.5t56.5 -62t26 -77.5h-70q-5 28 -22 52.5t-44 42.5t-63 28.5t-79 10.5
q-71 0 -130 -28t-101 -75t-65 -107.5t-23 -124.5q0 -53 16 -102t49 -86.5t83 -60t118 -22.5q57 0 103 16.5t80 45t56.5 68t33.5 85.5h-196zM342 -82q0 22 16 37.5t40 15.5q26 0 40 -19.5t14 -54.5q0 -54 -31.5 -82.5t-86.5 -28.5l3 31q20 0 36.5 7t24.5 24q5 11 5.5 20
t1.5 14q-7 -7 -22 -7q-18 0 -29.5 12.5t-11.5 30.5z" />
    <glyph glyph-name="gcommaaccent" unicode="&#x123;" horiz-adv-x="590" 
d="M505 -34q-7 -63 -28 -107.5t-54 -72.5t-76.5 -40.5t-94.5 -12.5q-62 0 -103 16.5t-65.5 44.5t-34.5 65t-8 78h66q-1 -28 5.5 -54t23 -46.5t45.5 -32.5t74 -12q37 0 68.5 9.5t55.5 30t40 53.5t21 81l14 128q-27 -48 -76 -76.5t-110 -28.5q-46 0 -83.5 17t-64 45.5t-41 67
t-14.5 81.5q0 51 19.5 96.5t53 80.5t79.5 55.5t99 20.5q66 0 107 -29.5t58 -74.5l9 94h65zM282 49q40 0 74.5 15.5t59 41.5t38.5 60t14 72q0 32 -10.5 60.5t-30 49.5t-47.5 33.5t-64 12.5q-41 0 -75 -15.5t-58.5 -41.5t-38.5 -60t-14 -72q0 -32 10 -60.5t29.5 -49.5
t48 -33.5t64.5 -12.5zM398 588q0 -26 -19 -45.5t-49 -19.5q-31 0 -48 23t-17 67q0 69 39.5 102t103.5 33l-3 -35q-58 0 -74 -41q-6 -14 -8 -24t-2 -17q10 8 27 8q23 0 36.5 -14.5t13.5 -36.5z" />
    <glyph glyph-name="Hcircumflex" unicode="&#x124;" horiz-adv-x="663" 
d="M544 317h-360l-33 -317h-68l74 700h68l-34 -321h360l34 321h69l-74 -700h-69zM430 943l160 -151l-42 -43l-125 121l-149 -121l-35 43z" />
    <glyph glyph-name="hcircumflex" unicode="&#x125;" horiz-adv-x="562" 
d="M157 700h65l-38 -353q24 45 70 75.5t112 30.5q43 0 74.5 -14.5t50.5 -40.5t24 -60t0 -78l-27 -260h-65l25 241q3 33 -1 61t-17 48.5t-36 32.5t-56 12q-38 0 -67.5 -14.5t-50 -38.5t-33 -54t-15.5 -61l-24 -227h-65zM390 943l159 -151l-41 -43l-126 121l-148 -121l-35 43z
" />
    <glyph glyph-name="Hbar" unicode="&#x126;" horiz-adv-x="663" 
d="M564 506h-360l-13 -127h360zM225 700l-15 -143h360l15 143h69l-74 -700h-69l33 317h-360l-33 -317h-68l74 700h68z" />
    <glyph glyph-name="hbar" unicode="&#x127;" horiz-adv-x="562" 
d="M397 542h-192l-20 -195q23 45 69 75.5t112 30.5q43 0 74.5 -14.5t50.5 -40.5t24 -60t0 -78l-27 -260h-65l25 241q3 33 -1 61t-17 48.5t-36 32.5t-56 12q-38 0 -67.5 -14.5t-50 -38.5t-33 -54t-15.5 -61l-24 -227h-65l57 542h-83l5 46h83l12 112h65l-12 -112h192z" />
    <glyph glyph-name="Itilde" unicode="&#x128;" horiz-adv-x="236" 
d="M156 700h70l-73 -700h-70zM274 845q23 0 41.5 15.5t30.5 37.5l46 -24q-23 -41 -56 -61t-68 -20q-24 0 -42 8.5t-32.5 18t-28.5 18t-30 8.5q-23 0 -41.5 -16.5t-29.5 -36.5l-45 29q26 40 58 58t64 18q25 0 42.5 -8.5t32 -18t28 -18t30.5 -8.5z" />
    <glyph glyph-name="itilde" unicode="&#x129;" horiz-adv-x="231" 
d="M130 443h65l-47 -443h-65zM254 622q23 0 42 16t31 38l47 -24q-24 -42 -57 -62t-68 -20q-24 0 -42 8.5t-32.5 18.5t-28.5 18.5t-30 8.5q-21 0 -39.5 -15t-31.5 -39l-45 29q26 40 58 58.5t65 18.5q25 0 42 -8.5t31.5 -18.5t27.5 -18.5t30 -8.5z" />
    <glyph glyph-name="Imacron" unicode="&#x12a;" horiz-adv-x="236" 
d="M156 700h70l-73 -700h-70zM381 800h-358l6 59h358z" />
    <glyph glyph-name="imacron" unicode="&#x12b;" horiz-adv-x="231" 
d="M129 443h65l-46 -443h-65zM350 575h-358l6 59h358z" />
    <glyph glyph-name="Ibreve" unicode="&#x12c;" horiz-adv-x="236" 
d="M156 700h70l-73 -700h-70zM205 824q48 0 84.5 24.5t51.5 69.5h62q-9 -33 -28.5 -59.5t-46.5 -46t-60 -30t-69 -10.5t-66.5 10.5t-53 30t-36.5 46t-16 59.5h62q6 -45 36.5 -69.5t79.5 -24.5z" />
    <glyph glyph-name="ibreve" unicode="&#x12d;" horiz-adv-x="231" 
d="M130 443h65l-47 -443h-65zM180 606q47 0 81.5 24.5t49.5 69.5h62q-9 -33 -28 -59.5t-45.5 -46t-58.5 -30t-67 -10.5t-64.5 10.5t-52 30t-36 46t-15.5 59.5h62q6 -45 35.5 -69.5t76.5 -24.5z" />
    <glyph glyph-name="Iogonek" unicode="&#x12e;" horiz-adv-x="236" 
d="M153 0h-12q-32 -22 -53.5 -47.5t-21.5 -54.5q0 -24 15.5 -41.5t50.5 -17.5q16 0 35.5 4t34.5 10l-6 -50q-17 -5 -40.5 -10t-47.5 -5q-55 0 -81 26t-26 63t24 65.5t69 57.5h-11l73 700h70z" />
    <glyph glyph-name="iogonek" unicode="&#x12f;" horiz-adv-x="231" 
d="M193 -197q-17 -5 -41 -10t-48 -5q-55 0 -81 26t-26 63t24 65.5t69 57.5h-7l46 443h65l-46 -443h-10q-33 -22 -54.5 -47.5t-21.5 -54.5q0 -25 16 -42t50 -17q16 0 35.5 4t35.5 10zM120 611q0 27 20 46.5t46 19.5q24 0 39.5 -16t15.5 -39q0 -27 -20.5 -46t-46.5 -19
q-24 0 -39 15.5t-15 38.5z" />
    <glyph glyph-name="Idotaccent" unicode="&#x130;" horiz-adv-x="236" 
d="M157 700h70l-74 -700h-70zM146 831q0 27 19.5 46.5t45.5 19.5q24 0 39.5 -16t15.5 -39q0 -27 -20 -46t-47 -19q-23 0 -38 15.5t-15 38.5z" />
    <glyph glyph-name="dotlessi" unicode="&#x131;" horiz-adv-x="222" 
d="M126 443h65l-47 -443h-65z" />
    <glyph glyph-name="Jcircumflex" unicode="&#x134;" horiz-adv-x="536" 
d="M485 216q-5 -51 -25 -93.5t-52 -73t-74.5 -47.5t-92.5 -17t-90 17t-67 47.5t-39 73.5t-7 94h68q-4 -41 5 -72.5t28.5 -53t47.5 -33t61 -11.5q69 0 114.5 45.5t53.5 123.5l51 484h69zM528 943l159 -151l-43 -43l-124 121l-149 -121l-34 43z" />
    <glyph glyph-name="jcircumflex" unicode="&#x135;" horiz-adv-x="231" 
d="M133 -135q-8 -69 -39 -99.5t-79 -30.5q-16 0 -34.5 3t-31.5 9l6 57q26 -11 46 -11q60 0 68 76l60 574h65zM193 728l160 -150l-42 -44l-124 122l-149 -121l-35 43z" />
    <glyph glyph-name="Kcommaaccent" unicode="&#x136;" horiz-adv-x="574" 
d="M477 0l-292 328l-34 -328h-68l74 700h68l-35 -329l361 329h88l-381 -350l307 -350h-88zM237 -71q0 22 16 37.5t40 15.5q25 0 39 -19.5t14 -55.5q0 -53 -31 -81.5t-87 -28.5l3 31q48 0 60 31q7 11 8.5 19.5t0.5 14.5q-9 -7 -22 -7q-18 0 -29.5 12.5t-11.5 30.5z" />
    <glyph glyph-name="kcommaaccent" unicode="&#x137;" horiz-adv-x="455" 
d="M488 443l-243 -222l196 -221h-85l-186 207l-22 -207h-65l74 700h65l-49 -465l230 208h85zM175 -71q0 22 16 37.5t40 15.5q25 0 39 -19.5t14 -55.5q0 -53 -31 -81.5t-87 -28.5l3 31q48 0 60 31q7 11 8.5 19.5t0.5 14.5q-9 -7 -22 -7q-18 0 -29.5 12.5t-11.5 30.5z" />
    <glyph glyph-name="kgreenlandic" unicode="&#x138;" horiz-adv-x="455" 
d="M245 221l196 -221h-85l-186 207l-22 -207h-65l47 443h65l-22 -208l230 208h85z" />
    <glyph glyph-name="Lacute" unicode="&#x139;" horiz-adv-x="422" 
d="M399 62l-7 -62h-309l74 700h68l-67 -638h241zM140 749l-27 53l264 137l26 -53z" />
    <glyph glyph-name="lacute" unicode="&#x13a;" horiz-adv-x="231" 
d="M156 700h65l-73 -700h-65zM86 751l-26 52l263 137l26 -52z" />
    <glyph glyph-name="Lcommaaccent" unicode="&#x13b;" horiz-adv-x="422" 
d="M157 700h68l-67 -638h241l-7 -62h-309zM170 -71q0 22 16 37.5t39 15.5q26 0 40 -19.5t14 -55.5q0 -55 -32 -82.5t-86 -27.5l3 31q48 0 60 30q7 12 8.5 20t0.5 14q-8 -6 -22 -6q-19 0 -30 12.5t-11 30.5z" />
    <glyph glyph-name="lcommaaccent" unicode="&#x13c;" horiz-adv-x="231" 
d="M157 700h65l-74 -700h-65zM56 -71q0 22 16 37.5t40 15.5q26 0 40 -19.5t14 -54.5q0 -53 -30.5 -82t-87.5 -29l3 31q26 0 40 8.5t21 22.5q5 11 6.5 20t1.5 14q-9 -7 -22 -7q-18 0 -30 12.5t-12 30.5z" />
    <glyph glyph-name="Lcaron" unicode="&#x13d;" horiz-adv-x="422" 
d="M399 62l-7 -62h-309l74 700h68l-67 -638h241zM345 656q0 27 19.5 46t49.5 19q31 0 48 -23t17 -68q0 -67 -39 -100t-105 -33l4 34q29 0 47 11t26 31q8 14 9 23.5t2 17.5q-10 -8 -27 -8q-23 0 -37 14t-14 36z" />
    <glyph glyph-name="lcaron" unicode="&#x13e;" horiz-adv-x="333" 
d="M157 700h65l-74 -700h-65zM266 656q0 27 19.5 46t49.5 19q31 0 48 -23t17 -68q0 -67 -39 -100t-105 -33l4 34q29 0 47 11t26 31q8 14 9 23.5t2 17.5q-10 -8 -27 -8q-23 0 -37 14t-14 36z" />
    <glyph glyph-name="Ldot" unicode="&#x13f;" horiz-adv-x="422" 
d="M399 62l-7 -62h-309l74 700h68l-67 -638h241zM295 381q0 27 20 46.5t46 19.5q24 0 39.5 -16t15.5 -39q0 -27 -20.5 -46t-46.5 -19q-23 0 -38.5 15.5t-15.5 38.5z" />
    <glyph glyph-name="ldot" unicode="&#x140;" horiz-adv-x="321" 
d="M157 700h65l-74 -700h-65zM253 325q0 27 20 46.5t46 19.5q24 0 39.5 -16t15.5 -39q0 -27 -20 -46t-46 -19q-24 0 -39.5 15.5t-15.5 38.5z" />
    <glyph glyph-name="Lslash" unicode="&#x141;" horiz-adv-x="422" 
d="M399 62l-7 -62h-309l30 283l-58 -27l6 57l58 27l38 360h68l-35 -331l169 78l-6 -57l-169 -78l-26 -250h241z" />
    <glyph glyph-name="lslash" unicode="&#x142;" horiz-adv-x="231" 
d="M116 311l-91 -47l6 53l91 47l35 336h70l-32 -299l97 50l-6 -55l-96 -49l-37 -347h-70z" />
    <glyph glyph-name="Nacute" unicode="&#x143;" horiz-adv-x="662" 
d="M522 118l62 582h69l-74 -700h-76l-291 582l-61 -582h-68l74 700h76zM306 749l-27 53l264 137l26 -53z" />
    <glyph glyph-name="nacute" unicode="&#x144;" horiz-adv-x="562" 
d="M130 443h65l-11 -96q24 45 70 75.5t112 30.5q43 0 74.5 -14.5t50.5 -40.5t24 -60t0 -78l-27 -260h-65l25 241q3 33 -1 61t-17 48.5t-36 32.5t-56 12q-38 0 -67.5 -14.5t-50 -38.5t-33 -54t-15.5 -61l-24 -227h-65zM237 510l-27 52l263 137l27 -52z" />
    <glyph glyph-name="Ncommaaccent" unicode="&#x145;" horiz-adv-x="662" 
d="M503 0l-291 582l-61 -582h-68l74 700h76l289 -582l62 582h69l-74 -700h-76zM277 -71q0 22 16 37.5t39 15.5q26 0 40 -19.5t14 -55.5q0 -55 -31.5 -82.5t-85.5 -27.5l3 31q46 0 60 30q2 5 6 16t2 18q-8 -6 -22 -6q-19 0 -30 12.5t-11 30.5z" />
    <glyph glyph-name="ncommaaccent" unicode="&#x146;" horiz-adv-x="562" 
d="M83 0l47 443h65l-11 -96q24 45 70 75.5t112 30.5q43 0 74.5 -14.5t50.5 -40.5t24 -60t0 -78l-27 -260h-65l25 241q3 33 -1 61t-17 48.5t-36 32.5t-56 12q-38 0 -67.5 -14.5t-50 -38.5t-33 -54t-15.5 -61l-24 -227h-65zM235 -71q0 22 16 37.5t40 15.5q25 0 39 -19.5
t14 -55.5q0 -52 -30 -81t-87 -29l3 31q27 0 40 9t20 22q5 11 7 20t2 14q-5 -3 -10 -5t-13 -2q-18 0 -29.5 12.5t-11.5 30.5z" />
    <glyph glyph-name="Ncaron" unicode="&#x147;" horiz-adv-x="662" 
d="M522 118l62 582h69l-74 -700h-76l-291 582l-61 -582h-68l74 700h76zM262 900l43 42l119 -119l144 120l35 -43l-188 -151z" />
    <glyph glyph-name="ncaron" unicode="&#x148;" horiz-adv-x="562" 
d="M83 0l47 443h65l-11 -96q24 45 70 75.5t112 30.5q43 0 74.5 -14.5t50.5 -40.5t24 -60t0 -78l-27 -260h-65l25 241q3 33 -1 61t-17 48.5t-36 32.5t-56 12q-38 0 -67.5 -14.5t-50 -38.5t-33 -54t-15.5 -61l-24 -227h-65zM200 683l43 42l119 -119l144 120l34 -43l-187 -151z
" />
    <glyph glyph-name="napostrophe" unicode="&#x149;" horiz-adv-x="562" 
d="M83 0l47 443h65l-11 -96q24 45 70 75.5t112 30.5q43 0 74.5 -14.5t50.5 -40.5t24 -60t0 -78l-27 -260h-65l25 241q3 33 -1 61t-17 48.5t-36 32.5t-56 12q-38 0 -67.5 -14.5t-50 -38.5t-33 -54t-15.5 -61l-24 -227h-65zM44 669q0 23 16 38t39 15q26 0 40 -19t14 -55
q0 -56 -32 -83t-85 -27l3 30q26 0 39.5 8.5t20.5 22.5q2 5 6 16t2 18q-8 -6 -22 -6q-19 0 -30 12t-11 30z" />
    <glyph glyph-name="Eng" unicode="&#x14a;" horiz-adv-x="662" 
d="M523 122l61 578h68l-77 -734q-5 -51 -25 -94t-52 -73.5t-74 -47.5t-91 -17q-60 0 -102.5 23.5t-68.5 63.5l49 44q21 -32 52.5 -50t75.5 -18q68 0 112.5 44t54.5 125l4 33l-298 583l-61 -582h-68l74 700h70z" />
    <glyph glyph-name="eng" unicode="&#x14b;" horiz-adv-x="562" 
d="M135 -150q22 -27 50 -42t67 -15q66 0 112.5 43t54.5 121l29 284q3 33 -1 61t-17 48.5t-36 32.5t-56 12q-38 0 -67.5 -14.5t-50 -38.5t-33 -54t-15.5 -61l-24 -227h-65l47 443h65l-11 -96q24 45 70 75.5t112 30.5q43 0 74.5 -14.5t50.5 -40.5t24 -60t0 -78l-32 -303
q-5 -50 -24.5 -91t-50.5 -70.5t-71.5 -46t-88.5 -16.5q-54 0 -94 20t-66 55z" />
    <glyph glyph-name="Omacron" unicode="&#x14c;" horiz-adv-x="806" 
d="M405 -15q-80 0 -141 27t-102 73t-62.5 105.5t-21.5 124.5q0 76 29 148.5t81 128t125 89.5t162 34q79 0 140.5 -27t102.5 -73t62.5 -105.5t21.5 -124.5q0 -77 -29 -149t-81 -127.5t-125.5 -89.5t-161.5 -34zM410 47q71 0 130 28t101.5 74.5t66 106.5t23.5 124
q0 54 -17 103t-50 87t-82 60.5t-113 22.5q-71 0 -130 -28t-101 -74.5t-65.5 -106.5t-23.5 -124q0 -54 17 -103t50 -87t82 -60.5t112 -22.5zM666 800h-358l7 59h358z" />
    <glyph glyph-name="omacron" unicode="&#x14d;" horiz-adv-x="552" 
d="M276 -11q-50 0 -89 17t-66 45.5t-41.5 66.5t-14.5 81q0 51 19.5 97t53.5 81t81 55.5t103 20.5q50 0 89.5 -16.5t66.5 -45t41.5 -67t14.5 -81.5q0 -51 -19.5 -97t-54 -81t-81.5 -55.5t-103 -20.5zM282 49q40 0 74.5 15.5t59 41.5t38.5 60t14 72q0 32 -10.5 60.5t-30 49.5
t-47.5 33.5t-64 12.5q-40 0 -74 -15.5t-59 -41.5t-39 -60t-14 -72q0 -32 10 -60.5t29.5 -49.5t48 -33.5t64.5 -12.5zM516 575h-358l6 59h358z" />
    <glyph glyph-name="Obreve" unicode="&#x14e;" horiz-adv-x="806" 
d="M405 -15q-80 0 -141 27t-102 73t-62.5 105.5t-21.5 124.5q0 76 29 148.5t81 128t125 89.5t162 34q79 0 140.5 -27t102.5 -73t62.5 -105.5t21.5 -124.5q0 -77 -29 -149t-81 -127.5t-125.5 -89.5t-161.5 -34zM410 47q71 0 130 28t101.5 74.5t66 106.5t23.5 124
q0 54 -17 103t-50 87t-82 60.5t-113 22.5q-71 0 -130 -28t-101 -74.5t-65.5 -106.5t-23.5 -124q0 -54 17 -103t50 -87t82 -60.5t112 -22.5zM490 824q48 0 84.5 24.5t51.5 69.5h62q-9 -33 -28.5 -59.5t-46.5 -46t-60 -30t-69 -10.5t-66.5 10.5t-53 30t-36.5 46t-16 59.5h62
q6 -45 37 -69.5t79 -24.5z" />
    <glyph glyph-name="obreve" unicode="&#x14f;" horiz-adv-x="552" 
d="M276 -11q-50 0 -89 17t-66 45.5t-41.5 66.5t-14.5 81q0 51 19.5 97t53.5 81t81 55.5t103 20.5q50 0 89.5 -16.5t66.5 -45t41.5 -67t14.5 -81.5q0 -51 -19.5 -97t-54 -81t-81.5 -55.5t-103 -20.5zM282 49q40 0 74.5 15.5t59 41.5t38.5 60t14 72q0 32 -10.5 60.5t-30 49.5
t-47.5 33.5t-64 12.5q-40 0 -74 -15.5t-59 -41.5t-39 -60t-14 -72q0 -32 10 -60.5t29.5 -49.5t48 -33.5t64.5 -12.5zM339 606q46 0 81 24.5t50 69.5h62q-9 -33 -28.5 -59.5t-46 -46t-58.5 -30t-67 -10.5t-64.5 10.5t-51.5 30t-35.5 46t-15.5 59.5h62q6 -45 35.5 -69.5
t76.5 -24.5z" />
    <glyph glyph-name="Ohungarumlaut" unicode="&#x150;" horiz-adv-x="806" 
d="M405 -15q-80 0 -141 27t-102 73t-62.5 105.5t-21.5 124.5q0 76 29 148.5t81 128t125 89.5t162 34q79 0 140.5 -27t102.5 -73t62.5 -105.5t21.5 -124.5q0 -77 -29 -149t-81 -127.5t-125.5 -89.5t-161.5 -34zM410 47q71 0 130 28t101.5 74.5t66 106.5t23.5 124
q0 54 -17 103t-50 87t-82 60.5t-113 22.5q-71 0 -130 -28t-101 -74.5t-65.5 -106.5t-23.5 -124q0 -54 17 -103t50 -87t82 -60.5t112 -22.5zM668 949l55 -29l-164 -156l-33 19zM473 949l55 -29l-164 -156l-33 19z" />
    <glyph glyph-name="ohungarumlaut" unicode="&#x151;" horiz-adv-x="552" 
d="M276 -11q-50 0 -89 17t-66 45.5t-41.5 66.5t-14.5 81q0 51 19.5 97t53.5 81t81 55.5t103 20.5q50 0 89.5 -16.5t66.5 -45t41.5 -67t14.5 -81.5q0 -51 -19.5 -97t-54 -81t-81.5 -55.5t-103 -20.5zM282 49q40 0 74.5 15.5t59 41.5t38.5 60t14 72q0 32 -10.5 60.5t-30 49.5
t-47.5 33.5t-64 12.5q-40 0 -74 -15.5t-59 -41.5t-39 -60t-14 -72q0 -32 10 -60.5t29.5 -49.5t48 -33.5t64.5 -12.5zM323 707l56 -28l-164 -156l-34 18zM410 522l-34 19l142 166l56 -28z" />
    <glyph glyph-name="OE" unicode="&#x152;" horiz-adv-x="1152" 
d="M828 638l-28 -259h314l-6 -62h-314l-27 -255h314l-7 -62h-382l16 148q-23 -36 -54.5 -66t-70.5 -51.5t-85 -34t-97 -12.5q-78 0 -138 27.5t-101 73t-62.5 105t-21.5 124.5q0 76 29 148.5t81.5 128t126 89.5t162.5 34q53 0 96.5 -12.5t77.5 -34.5t58.5 -52t40.5 -65
l16 150h382l-6 -62h-314zM410 46q71 0 130 28t101.5 74.5t66 106.5t23.5 124q0 54 -17 103t-50 87t-82 60.5t-113 22.5q-71 0 -130 -28t-101 -74.5t-65.5 -106.5t-23.5 -124q0 -54 17 -103t50 -87t82 -60.5t112 -22.5z" />
    <glyph glyph-name="oe" unicode="&#x153;" horiz-adv-x="916" 
d="M532 207q-4 -34 2.5 -63.5t23.5 -51t44.5 -34t66.5 -12.5q56 0 89.5 24t49.5 57h67q-9 -27 -28 -52t-46.5 -44t-62 -30.5t-75.5 -11.5q-72 0 -116 32.5t-62 82.5q-32 -51 -86.5 -83t-124.5 -32q-49 0 -87.5 16.5t-65.5 45t-41.5 67t-14.5 81.5q0 51 19 97t53.5 81
t81.5 55.5t103 20.5q70 0 117.5 -31.5t69.5 -82.5q28 51 79.5 82.5t117.5 31.5q43 0 77.5 -14t59 -38.5t38 -58t13.5 -73.5q0 -19 -2.5 -32.5t-6.5 -29.5h-353zM700 397q-63 0 -107.5 -37.5t-54.5 -101.5h291q3 31 -5 57t-25 44t-42.5 28t-56.5 10zM282 49q40 0 74 15t59 41
t39 60t14 73q0 32 -10.5 60.5t-30 49.5t-47.5 33.5t-64 12.5q-40 0 -74 -15.5t-59 -41.5t-39 -60t-14 -72q0 -32 10 -60.5t29.5 -49.5t48 -33.5t64.5 -12.5z" />
    <glyph glyph-name="Racute" unicode="&#x154;" horiz-adv-x="602" 
d="M157 700h241q49 0 88.5 -17t66.5 -45.5t41.5 -66.5t14.5 -81q0 -42 -13.5 -81t-38.5 -71.5t-60 -56t-77 -34.5l131 -247h-79l-124 236h-172l-25 -236h-68zM355 298q41 0 75 15t58 41t37.5 59.5t13.5 71.5q0 31 -10 59t-29 49t-46.5 33t-62.5 12h-173l-36 -340h173z
M271 749l-26 53l264 137l25 -53z" />
    <glyph glyph-name="racute" unicode="&#x155;" horiz-adv-x="353" 
d="M388 382q-12 4 -20.5 5t-17.5 1q-42 0 -74 -15.5t-54.5 -41.5t-35.5 -60.5t-17 -73.5l-21 -197h-65l47 443h65l-11 -104q25 54 71.5 82t97.5 28q12 0 22.5 -1.5t18.5 -5.5zM140 520l-27 52l264 137l26 -52z" />
    <glyph glyph-name="Rcommaaccent" unicode="&#x156;" horiz-adv-x="602" 
d="M157 700h241q49 0 88.5 -17t66.5 -45.5t41.5 -66.5t14.5 -81q0 -42 -13.5 -81t-38.5 -71.5t-60 -56t-77 -34.5l131 -247h-79l-124 236h-172l-25 -236h-68zM218 638l-36 -340h173q41 0 75 15t58 41t37.5 59.5t13.5 71.5q0 31 -10 59t-29 49t-46.5 33t-62.5 12h-173z
M242 -71q0 22 16 37.5t40 15.5q25 0 39 -19t14 -56q0 -55 -31.5 -82.5t-85.5 -27.5l3 31q37 0 54 15t17 37q0 7 -1 8.5t-1 3.5q-9 -6 -22 -6q-20 0 -31 12.5t-11 30.5z" />
    <glyph glyph-name="rcommaaccent" unicode="&#x157;" horiz-adv-x="353" 
d="M388 382q-12 4 -20.5 5t-17.5 1q-42 0 -74 -15.5t-54.5 -41.5t-35.5 -60.5t-17 -73.5l-21 -197h-65l47 443h65l-11 -104q25 54 72 82t98 28q26 0 41 -7zM56 -71q0 22 16 37.5t40 15.5q26 0 40 -19.5t14 -54.5q0 -53 -30.5 -82t-87.5 -29l3 31q26 0 40 8.5t21 22.5
q5 11 6.5 20t1.5 14q-9 -7 -22 -7q-18 0 -30 12.5t-12 30.5z" />
    <glyph glyph-name="Rcaron" unicode="&#x158;" horiz-adv-x="602" 
d="M157 700h241q49 0 88.5 -17t66.5 -45.5t41.5 -66.5t14.5 -81q0 -42 -13.5 -81t-38.5 -71.5t-60 -56t-77 -34.5l131 -247h-79l-124 236h-172l-25 -236h-68zM355 298q41 0 75 15t58 41t37.5 59.5t13.5 71.5q0 31 -10 59t-29 49t-46.5 33t-62.5 12h-173l-36 -340h173z
M215 900l43 42l118 -119l145 120l34 -43l-187 -151z" />
    <glyph glyph-name="rcaron" unicode="&#x159;" horiz-adv-x="353" 
d="M388 382q-12 4 -20.5 5t-17.5 1q-42 0 -74 -15.5t-54.5 -41.5t-35.5 -60.5t-17 -73.5l-21 -197h-65l47 443h65l-11 -104q25 54 71.5 82t97.5 28q12 0 22.5 -1.5t18.5 -5.5zM103 683l43 42l118 -119l144 120l35 -43l-187 -151z" />
    <glyph glyph-name="Sacute" unicode="&#x15a;" horiz-adv-x="572" 
d="M138 217q-8 -80 37.5 -125t126.5 -45q38 0 70 10.5t55.5 29t36.5 45.5t13 60t-12 54.5t-32 36t-45 23.5t-52 16q-41 12 -78.5 25.5t-66.5 33.5t-46 50.5t-17 76.5t17.5 84t49 65.5t74.5 42.5t95 15t91 -15t64.5 -43t36.5 -66.5t7 -85.5h-68q3 33 -4 60t-23.5 46.5
t-43.5 30.5t-66 11q-72 0 -116.5 -37t-44.5 -97q0 -31 12 -51.5t31.5 -34.5t45 -23.5t53.5 -16.5q39 -11 76 -24.5t66.5 -34.5t47 -53t17.5 -80q0 -50 -19.5 -89.5t-54 -68t-80.5 -43.5t-100 -15q-58 0 -102 17.5t-72.5 48t-40.5 73t-7 93.5h68zM261 749l-26 53l264 137
l25 -53z" />
    <glyph glyph-name="sacute" unicode="&#x15b;" horiz-adv-x="450" 
d="M281 242q27 -7 51 -14.5t42 -19.5t28.5 -31t10.5 -48q0 -33 -13.5 -59t-37.5 -44t-57.5 -27.5t-73.5 -9.5q-39 0 -72.5 9.5t-56.5 29.5t-35 50t-7 72h64q-3 -30 4 -50t22.5 -33t37.5 -18.5t48 -5.5q54 0 84.5 21t30.5 59q0 20 -9.5 32t-27 20.5t-43 15.5t-57.5 16
q-27 7 -49.5 14.5t-39 19.5t-25.5 29.5t-9 44.5q0 34 14 59.5t38 43t56 26.5t68 9q38 0 69 -10t52 -29t31 -46.5t6 -61.5h-64q5 46 -21 70t-76 24q-47 0 -77.5 -21t-30.5 -59q0 -18 8.5 -29.5t24 -19.5t39 -14t53.5 -15zM169 510l-26 52l263 137l26 -52z" />
    <glyph glyph-name="Scircumflex" unicode="&#x15c;" horiz-adv-x="572" 
d="M138 217q-8 -80 37.5 -125t126.5 -45q38 0 70 10.5t55.5 29t36.5 45.5t13 60t-12 54.5t-32 36t-45 23.5t-52 16q-41 12 -78.5 25.5t-66.5 33.5t-46 50.5t-17 76.5t17.5 84t49 65.5t74.5 42.5t95 15t91 -15t64.5 -43t36.5 -66.5t7 -85.5h-68q3 33 -4 60t-23.5 46.5
t-43.5 30.5t-66 11q-72 0 -116.5 -37t-44.5 -97q0 -31 12 -51.5t31.5 -34.5t45 -23.5t53.5 -16.5q39 -11 76 -24.5t66.5 -34.5t47 -53t17.5 -80q0 -50 -19.5 -89.5t-54 -68t-80.5 -43.5t-100 -15q-58 0 -102 17.5t-72.5 48t-40.5 73t-7 93.5h68zM391 943l160 -151l-42 -43
l-125 121l-148 -121l-35 43z" />
    <glyph glyph-name="scircumflex" unicode="&#x15d;" horiz-adv-x="450" 
d="M281 242q27 -7 51 -14.5t42 -19.5t28.5 -31t10.5 -48q0 -33 -13.5 -59t-37.5 -44t-57.5 -27.5t-73.5 -9.5q-39 0 -72.5 9.5t-56.5 29.5t-35 50t-7 72h64q-3 -30 4 -50t22.5 -33t37.5 -18.5t48 -5.5q54 0 84.5 21t30.5 59q0 20 -9.5 32t-27 20.5t-43 15.5t-57.5 16
q-27 7 -49.5 14.5t-39 19.5t-25.5 29.5t-9 44.5q0 34 14 59.5t38 43t56 26.5t68 9q38 0 69 -10t52 -29t31 -46.5t6 -61.5h-64q5 46 -21 70t-76 24q-47 0 -77.5 -21t-30.5 -59q0 -18 8.5 -29.5t24 -19.5t39 -14t53.5 -15zM300 728l160 -150l-43 -44l-124 122l-149 -121
l-34 43z" />
    <glyph glyph-name="Scedilla" unicode="&#x15e;" horiz-adv-x="572" 
d="M255 -14q-46 5 -82.5 23.5t-61 48.5t-35.5 70t-6 89h68q-8 -81 37 -125.5t126 -44.5q38 0 70.5 10.5t56 29.5t36.5 46t13 61q0 33 -12.5 55t-33 36t-47 22.5t-54.5 16.5q-39 12 -75.5 25t-65 33.5t-45.5 51t-17 75.5t17.5 83t49 65.5t75 42.5t95.5 15t91 -15t64 -43
t36.5 -66.5t7.5 -85.5h-68q2 33 -4.5 60t-23.5 46.5t-44 30.5t-65 11q-36 0 -65.5 -9.5t-51 -27t-33 -42t-11.5 -54.5q0 -31 12 -52t32 -35t45.5 -23.5t52.5 -16.5q40 -12 77.5 -25.5t66 -34.5t46 -52.5t17.5 -79.5q0 -49 -18.5 -87.5t-51 -66t-77.5 -43t-98 -18.5l-6 -63
q18 26 53 26q31 0 53.5 -21.5t22.5 -57.5q0 -20 -7.5 -38.5t-21 -33t-33 -23.5t-42.5 -9q-15 0 -31 4.5t-29 14.5t-21.5 27t-8.5 43h43q0 -23 12.5 -37t35.5 -14q27 0 44 18.5t17 42.5q0 21 -13.5 35t-38.5 14q-11 0 -23.5 -5.5t-24.5 -26.5h-38z" />
    <glyph glyph-name="scedilla" unicode="&#x15f;" horiz-adv-x="450" 
d="M194 -8q-32 4 -58 15.5t-44.5 31t-27.5 47t-5 64.5h64q-3 -30 4.5 -50t23 -33t37.5 -18.5t48 -5.5q54 0 84 21t30 58q0 20 -9.5 32.5t-27 21t-43.5 15.5t-59 17q-26 6 -48 13.5t-38 19.5t-25 29.5t-9 44.5q0 34 14 59.5t38 43t56 26.5t67 9q38 0 69 -10t52 -29t31 -46.5
t7 -61.5h-64q5 46 -21 70t-76 24q-48 0 -78.5 -21.5t-30.5 -56.5q0 -19 9 -30.5t26 -19.5t41 -14.5t55 -15.5q27 -8 50 -16t40.5 -20t27 -30.5t9.5 -46.5q0 -33 -13 -58t-36.5 -43t-55.5 -27.5t-70 -10.5l-7 -67q9 13 23.5 19.5t31.5 6.5q30 0 52.5 -21.5t22.5 -57.5
q0 -20 -7.5 -38.5t-21 -33t-32.5 -23.5t-42 -9q-15 0 -31 4.5t-29.5 14.5t-22 27t-8.5 43h42q0 -22 13 -36.5t36 -14.5q26 0 43.5 18t17.5 43q0 21 -13 35t-38 14q-11 0 -24 -5.5t-25 -26.5h-37z" />
    <glyph glyph-name="Scaron" unicode="&#x160;" horiz-adv-x="572" 
d="M138 217q-8 -80 37.5 -125t126.5 -45q38 0 70 10.5t55.5 29t36.5 45.5t13 60t-12 54.5t-32 36t-45 23.5t-52 16q-41 12 -79 25.5t-66.5 33.5t-45.5 50.5t-17 75.5q0 46 18 84.5t49.5 66t75 42.5t95.5 15t90.5 -15.5t63.5 -43t36 -66.5t7 -85h-68q3 33 -4 60t-23.5 46.5
t-43.5 30.5t-66 11q-72 0 -116.5 -37t-44.5 -97q0 -31 12 -51.5t31.5 -34.5t45 -23.5t53.5 -16.5q39 -11 76 -24.5t66.5 -34.5t47 -53t17.5 -80q0 -50 -19.5 -89.5t-54 -68t-80.5 -43.5t-100 -15q-58 0 -102 17.5t-72.5 48t-40.5 73t-7 93.5h68zM220 905l44 43l118 -120
l145 120l34 -43l-188 -150z" />
    <glyph glyph-name="scaron" unicode="&#x161;" horiz-adv-x="450" 
d="M281 242q27 -7 51 -14.5t42 -19.5t28.5 -31t10.5 -48q0 -33 -13.5 -59t-37.5 -44t-57.5 -27.5t-73.5 -9.5q-39 0 -72.5 9.5t-56.5 29.5t-35 50t-7 72h64q-3 -30 4 -50t22.5 -33t37.5 -18.5t48 -5.5q54 0 84.5 21t30.5 59q0 20 -9.5 32t-27 20.5t-43 15.5t-57.5 16
q-27 7 -49.5 14.5t-39 19.5t-25.5 29.5t-9 44.5q0 34 14 59.5t38 43t56 26.5t68 9q38 0 69 -10t52 -29t31 -46.5t6 -61.5h-64q5 46 -21 70t-76 24q-47 0 -77.5 -21t-30.5 -59q0 -18 8.5 -29.5t24 -19.5t39 -14t53.5 -15zM126 679l44 43l118 -120l145 120l33 -43l-186 -150z
" />
    <glyph glyph-name="Tcommaaccent" unicode="&#x162;" horiz-adv-x="474" 
d="M269 638h-188l7 62h446l-7 -62h-190l-67 -638h-68zM180 -71q0 22 15.5 37.5t39.5 15.5q26 0 40 -19.5t14 -55.5q0 -56 -32.5 -83t-85.5 -27l3 31q38 0 55 16t17 36q0 9 -3 12q-8 -6 -22 -6q-19 0 -30 12.5t-11 30.5z" />
    <glyph glyph-name="tcommaaccent" unicode="&#x163;" horiz-adv-x="329" 
d="M67 443h89l17 164h66l-17 -164h128l-6 -56h-128l-24 -226q-4 -36 0 -57t14 -32t24.5 -14.5t31.5 -3.5q14 0 32.5 1.5t31.5 3.5l-7 -59q-13 -2 -34 -4t-42 -2t-44.5 4t-41.5 19.5t-28 46.5t-4 84l25 239h-89zM137 -71q0 22 16 37.5t40 15.5q25 0 39.5 -19t14.5 -56
q0 -57 -33.5 -83.5t-84.5 -26.5l3 31q26 0 40 8.5t21 22.5q5 11 6.5 20t1.5 14q-9 -7 -22 -7q-18 0 -30 12.5t-12 30.5z" />
    <glyph glyph-name="Tcaron" unicode="&#x164;" horiz-adv-x="474" 
d="M269 638h-188l7 62h446l-7 -62h-190l-67 -638h-68zM162 900l43 42l118 -119l145 120l34 -43l-187 -151z" />
    <glyph glyph-name="tcaron" unicode="&#x165;" horiz-adv-x="437" 
d="M67 443h89l17 164h66l-17 -164h128l-6 -56h-128l-24 -226q-4 -36 0 -57t14 -32t24.5 -14.5t31.5 -3.5q14 0 32.5 1.5t31.5 3.5l-7 -59q-13 -2 -34 -4t-42 -2t-44.5 4t-41.5 19.5t-28 46.5t-4 84l25 239h-89zM327 645q0 26 20 45.5t49 19.5q30 0 47.5 -23t17.5 -68
q0 -66 -39 -100t-105 -34l4 35q59 0 73 41q8 14 10 23.5t1 17.5q-10 -8 -26 -8q-23 0 -37.5 14.5t-14.5 36.5z" />
    <glyph glyph-name="Tbar" unicode="&#x166;" horiz-adv-x="474" 
d="M464 441h-148l-46 -441h-68l46 441h-142l6 52h142l15 145h-188l7 62h446l-7 -62h-190l-15 -145h148z" />
    <glyph glyph-name="tbar" unicode="&#x167;" horiz-adv-x="329" 
d="M319 0q-14 -2 -35 -4t-42 -2q-22 0 -45.5 4.5t-41.5 20t-27.5 46t-3.5 83.5l8 73h-89l5 46h89l12 120h-89l6 56h89l18 164h66l-18 -164h128l-6 -56h-128l-12 -120h113l-5 -46h-113l-6 -60q-3 -35 0.5 -56t12.5 -32.5t23.5 -15t32.5 -3.5q14 0 33 1.5t31 3.5z" />
    <glyph glyph-name="Utilde" unicode="&#x168;" horiz-adv-x="618" 
d="M146 700h68l-50 -480q-4 -35 4.5 -66.5t28 -55t49.5 -37.5t68 -14t70.5 14t57 37.5t39.5 55t19 66.5l50 480h68l-50 -480q-5 -48 -26 -90.5t-55 -74.5t-79.5 -51t-99.5 -19q-53 0 -94.5 18.5t-69.5 50.5t-40.5 74.5t-7.5 91.5zM468 845q24 0 43 16.5t29 36.5l47 -24
q-25 -42 -58.5 -61.5t-66.5 -19.5q-24 0 -41.5 8.5t-32.5 18t-28.5 18t-30.5 8.5q-24 0 -42 -16.5t-29 -36.5l-44 29q24 40 57 58t65 18q25 0 42.5 -8.5t31.5 -18t27.5 -18t30.5 -8.5z" />
    <glyph glyph-name="utilde" unicode="&#x169;" horiz-adv-x="560" 
d="M477 0h-65l10 96q-25 -48 -71 -77.5t-109 -29.5q-43 0 -75 15t-51 41t-24 60t0 78l27 260h66l-25 -241q-3 -33 1 -61t17 -48.5t35.5 -32.5t55.5 -12q38 0 67.5 14.5t50 38.5t33 54t15.5 61l24 227h65zM411 622q23 0 41.5 16t30.5 38l47 -24q-24 -42 -57 -62t-68 -20
q-24 0 -42 8.5t-32.5 18.5t-28.5 18.5t-30 8.5q-21 0 -39.5 -15t-31.5 -39l-45 29q25 40 57.5 58.5t65.5 18.5q25 0 42.5 -8.5t32 -18.5t27.5 -18.5t30 -8.5z" />
    <glyph glyph-name="Umacron" unicode="&#x16a;" horiz-adv-x="618" 
d="M146 700h68l-50 -480q-4 -35 4.5 -66.5t28 -55t49.5 -37.5t68 -14t70.5 14t57 37.5t39.5 55t19 66.5l50 480h68l-50 -480q-5 -48 -26 -90.5t-55 -74.5t-79.5 -51t-99.5 -19q-53 0 -94.5 18.5t-69.5 50.5t-40.5 74.5t-7.5 91.5zM572 800h-358l7 59h358z" />
    <glyph glyph-name="umacron" unicode="&#x16b;" horiz-adv-x="560" 
d="M477 0h-65l10 96q-25 -48 -71 -77.5t-109 -29.5q-43 0 -75 15t-51 41t-24 60t0 78l27 260h66l-25 -241q-3 -33 1 -61t17 -48.5t35.5 -32.5t55.5 -12q38 0 67.5 14.5t50 38.5t33 54t15.5 61l24 227h65zM520 575h-358l6 59h358z" />
    <glyph glyph-name="Ubreve" unicode="&#x16c;" horiz-adv-x="618" 
d="M146 700h68l-50 -480q-4 -35 4.5 -66.5t28 -55t49.5 -37.5t68 -14t70.5 14t57 37.5t39.5 55t19 66.5l50 480h68l-50 -480q-5 -48 -26 -90.5t-55 -74.5t-79.5 -51t-99.5 -19q-53 0 -94.5 18.5t-69.5 50.5t-40.5 74.5t-7.5 91.5zM392 824q48 0 84.5 24.5t51.5 69.5h62
q-9 -33 -28.5 -59.5t-47 -46t-60.5 -30t-69 -10.5t-66.5 10.5t-53 30t-36 46t-15.5 59.5h62q6 -45 36.5 -69.5t79.5 -24.5z" />
    <glyph glyph-name="ubreve" unicode="&#x16d;" horiz-adv-x="560" 
d="M477 0h-65l10 96q-25 -48 -71 -77.5t-109 -29.5q-43 0 -75 15t-51 41t-24 60t0 78l27 260h66l-25 -241q-3 -33 1 -61t17 -48.5t35.5 -32.5t55.5 -12q38 0 67.5 14.5t50 38.5t33 54t15.5 61l24 227h65zM340 606q47 0 82 24.5t50 69.5h61q-9 -33 -28 -59.5t-45 -46t-58 -30
t-67 -10.5t-65 10.5t-52 30t-35.5 46t-15.5 59.5h62q5 -45 34.5 -69.5t76.5 -24.5z" />
    <glyph glyph-name="Uring" unicode="&#x16e;" horiz-adv-x="618" 
d="M146 700h68l-50 -480q-4 -35 4.5 -66.5t28 -55t49.5 -37.5t68 -14t70.5 14t57 37.5t39.5 55t19 66.5l50 480h68l-50 -480q-5 -48 -26 -90.5t-55 -74.5t-79.5 -51t-99.5 -19q-53 0 -94.5 18.5t-69.5 50.5t-40.5 74.5t-7.5 91.5zM411 976q24 0 44.5 -9t35.5 -24t23.5 -35.5
t8.5 -43.5q0 -27 -11.5 -51.5t-30 -42.5t-43 -29t-51.5 -11q-24 0 -44.5 9t-35.5 24.5t-23.5 36t-8.5 43.5q0 27 11.5 51t30 42.5t43 29t51.5 10.5zM406 932q-17 0 -32.5 -7t-27.5 -18.5t-19 -27t-7 -32.5q0 -29 20 -50.5t51 -21.5q17 0 32.5 7t27.5 18.5t19 27t7 32.5
q0 29 -20 50.5t-51 21.5z" />
    <glyph glyph-name="uring" unicode="&#x16f;" horiz-adv-x="560" 
d="M477 0h-65l10 96q-25 -48 -71 -77.5t-109 -29.5q-43 0 -75 15t-51 41t-24 60t0 78l27 260h66l-25 -241q-3 -33 1 -61t17 -48.5t35.5 -32.5t55.5 -12q38 0 67.5 14.5t50 38.5t33 54t15.5 61l24 227h65zM354 751q25 0 46 -9.5t36.5 -25t24 -36.5t8.5 -44q0 -27 -11.5 -52
t-30.5 -44t-44.5 -30t-52.5 -11q-25 0 -46 9.5t-36 25t-23.5 36.5t-8.5 45q0 28 11.5 52.5t30.5 43t44 29.5t52 11zM351 708q-18 0 -34.5 -7t-29 -19.5t-20 -29t-7.5 -34.5q0 -31 20.5 -53t53.5 -22q18 0 34.5 7t29 19.5t20 29t7.5 34.5q0 32 -21 53.5t-53 21.5z" />
    <glyph glyph-name="Uhungarumlaut" unicode="&#x170;" horiz-adv-x="618" 
d="M146 700h68l-50 -480q-4 -35 4.5 -66.5t28 -55t49.5 -37.5t68 -14t70.5 14t57 37.5t39.5 55t19 66.5l50 480h68l-50 -480q-5 -48 -26 -90.5t-55 -74.5t-79.5 -51t-99.5 -19q-53 0 -94.5 18.5t-69.5 50.5t-40.5 74.5t-7.5 91.5zM576 949l55 -29l-164 -156l-33 19zM381 949
l55 -29l-164 -156l-33 19z" />
    <glyph glyph-name="uhungarumlaut" unicode="&#x171;" horiz-adv-x="560" 
d="M524 443l-47 -443h-65l10 96q-25 -48 -71 -77.5t-109 -29.5q-43 0 -75 15t-51 41t-24 60t0 78l27 260h66l-25 -241q-3 -33 1 -61t17 -48.5t35.5 -32.5t55.5 -12q38 0 67.5 14.5t50 38.5t33 54t15.5 61l24 227h65zM211 511l-34 19l142 166l55 -29zM406 511l-34 19l142 166
l55 -29z" />
    <glyph glyph-name="Uogonek" unicode="&#x172;" horiz-adv-x="618" 
d="M401 -197q-17 -5 -40.5 -10t-48.5 -5q-55 0 -80.5 26t-25.5 63q0 31 17.5 57t55.5 53q-47 4 -83 24.5t-59.5 52t-34 71.5t-5.5 85l50 480h68l-50 -480q-4 -35 4.5 -66.5t28 -55t49 -37.5t67.5 -14t70.5 14t57.5 37.5t40 55t19 66.5l50 480h68l-50 -480q-5 -46 -24.5 -87
t-51.5 -72.5t-74.5 -51.5t-93.5 -23q-25 -20 -39.5 -42t-14.5 -46t15.5 -41.5t49.5 -17.5q16 0 35.5 4t35.5 10z" />
    <glyph glyph-name="uogonek" unicode="&#x173;" horiz-adv-x="560" 
d="M242 -11q-43 0 -75 15t-51 41t-24 60t0 78l27 260h66l-25 -241q-3 -33 1 -61t17 -48.5t35.5 -32.5t55.5 -12q38 0 67.5 14.5t50 38.5t33 54t15.5 61l24 227h65l-47 -443h-14q-45 -20 -73 -46t-28 -61q0 -23 14.5 -38.5t43.5 -15.5q14 0 32 3.5t32 8.5l-7 -50
q-15 -5 -36.5 -9t-44.5 -4q-53 0 -78 24.5t-25 60.5q0 41 30 71t90 59l9 93q-25 -48 -71 -77.5t-109 -29.5z" />
    <glyph glyph-name="Wcircumflex" unicode="&#x174;" horiz-adv-x="946" 
d="M535 584l-239 -584h-53l-163 700h72l129 -585l239 585h54l116 -585l252 585h72l-311 -700h-53zM574 943l159 -151l-43 -43l-124 121l-149 -121l-34 43z" />
    <glyph glyph-name="wcircumflex" unicode="&#x175;" horiz-adv-x="715" 
d="M396 370l-170 -370h-47l-124 443h70l88 -344l159 344h65l86 -344l161 344h70l-218 -443h-47zM435 728l160 -150l-42 -44l-125 122l-148 -121l-35 43z" />
    <glyph glyph-name="Ycircumflex" unicode="&#x176;" 
d="M209 0h-75l171 277l-222 423h79l185 -353l218 353h75zM402 943l159 -151l-43 -43l-124 121l-149 -121l-34 43z" />
    <glyph glyph-name="ycircumflex" unicode="&#x177;" horiz-adv-x="568" 
d="M256 -267q-205 0 -188 202h66q-4 -76 28 -111t101 -35q32 0 58.5 8t46 27t32 49t17.5 75l16 148q-24 -45 -68 -76t-114 -31q-86 0 -126 54q-17 23 -22.5 56t0.5 89l27 255h66l-25 -236q-8 -72 15 -115.5t91 -43.5q40 0 70 14.5t51 38.5t33 54t15 61l24 227h64l-52 -495
q-12 -114 -69.5 -164.5t-156.5 -50.5zM361 728l160 -150l-43 -44l-124 122l-149 -121l-34 43z" />
    <glyph glyph-name="Ydieresis" unicode="&#x178;" 
d="M209 0h-75l171 277l-222 423h79l185 -353l218 353h75zM447 826q0 26 19 45t45 19q23 0 37.5 -15.5t14.5 -37.5q0 -26 -19 -44.5t-45 -18.5q-23 0 -37.5 15t-14.5 37zM217 826q0 26 19 45t45 19q23 0 37.5 -15.5t14.5 -37.5q0 -26 -19 -44.5t-45 -18.5q-23 0 -37.5 15
t-14.5 37z" />
    <glyph glyph-name="Zacute" unicode="&#x179;" horiz-adv-x="552" 
d="M110 700h509l-481 -638h423l-7 -62h-539l481 638h-393zM259 753l-26 52l263 137l27 -52z" />
    <glyph glyph-name="zacute" unicode="&#x17a;" horiz-adv-x="431" 
d="M451 443l-306 -384h266l-6 -59h-379l305 384h-255l7 59h368zM160 509l-26 52l263 137l27 -52z" />
    <glyph glyph-name="Zdotaccent" unicode="&#x17b;" horiz-adv-x="552" 
d="M110 700h509l-481 -638h423l-7 -62h-539l481 638h-393zM307 831q0 27 19.5 46.5t45.5 19.5q24 0 39.5 -16t15.5 -39q0 -27 -20 -46t-47 -19q-23 0 -38 15.5t-15 38.5z" />
    <glyph glyph-name="zdotaccent" unicode="&#x17c;" horiz-adv-x="431" 
d="M451 443l-306 -384h266l-6 -59h-379l305 384h-255l7 59h368zM219 599q0 27 20 46.5t46 19.5q24 0 39 -16t15 -39q0 -27 -19.5 -46t-46.5 -19q-24 0 -39 15.5t-15 38.5z" />
    <glyph glyph-name="Zcaron" unicode="&#x17d;" horiz-adv-x="552" 
d="M222 900l43 42l118 -119l145 120l34 -43l-187 -151zM110 700h509l-481 -638h423l-7 -62h-539l481 638h-393z" />
    <glyph glyph-name="zcaron" unicode="&#x17e;" horiz-adv-x="431" 
d="M123 673l43 42l119 -120l144 120l34 -42l-187 -151zM451 443l-306 -384h266l-6 -59h-379l305 384h-255l7 59h368z" />
    <glyph glyph-name="longs" unicode="&#x17f;" horiz-adv-x="335" 
d="M393 638q-11 5 -23 7t-30 2q-15 0 -30 -2.5t-28 -12.5t-23 -30t-13 -54l-58 -548h-65l41 387h-101l6 56h101l10 99q6 55 23 87.5t39.5 49.5t48 22t47.5 5q23 0 37 -3.5t24 -8.5z" />
    <glyph glyph-name="florin" unicode="&#x192;" horiz-adv-x="412" 
d="M-73 -167q11 -5 22.5 -7t28.5 -2q15 0 30.5 3t30 13t27.5 29.5t24 53.5l131 464h-101l16 56h100l29 99q15 57 39 89.5t50 49t51 21t44 4.5q25 0 38.5 -3.5t22.5 -8.5l-14 -56q-12 5 -23.5 7t-28.5 2q-15 0 -30.5 -2.5t-30.5 -12.5t-28.5 -30t-23.5 -54l-30 -105h139
l-16 -56h-138l-128 -458q-15 -54 -38 -86.5t-48.5 -50t-51.5 -22.5t-49 -5t-36.5 3t-23.5 8z" />
    <glyph glyph-name="Aringacute" unicode="&#x1fa;" horiz-adv-x="546" 
d="M420 758q0 -23 -13 -41t-32 -26l165 -691h-72l-30 125h-304l-56 -125h-72l311 690q-16 7 -25 22t-9 34q0 30 22.5 52t52.5 22q27 0 44.5 -18t17.5 -44zM162 187h262l-89 404zM355 788q-16 0 -28 -11.5t-12 -28.5q0 -13 8.5 -23t23.5 -10q17 0 28.5 12t11.5 28
q0 14 -8.5 23.5t-23.5 9.5zM235 787l-19 35l264 137l18 -35z" />
    <glyph glyph-name="aringacute" unicode="&#x1fb;" horiz-adv-x="592" 
d="M491 443h65l-47 -443h-65l10 93q-26 -45 -74.5 -74.5t-111.5 -29.5q-46 0 -83.5 17t-64 45.5t-41 67t-14.5 81.5q0 51 19.5 96.5t53.5 80.5t80 55.5t99 20.5q66 0 106.5 -29.5t57.5 -74.5zM316 394q-40 0 -74 -15.5t-59 -41.5t-39 -60t-14 -72q0 -32 10 -60.5t29.5 -49.5
t47.5 -33.5t64 -12.5q38 0 70.5 14t57 37.5t40 54.5t18.5 66q2 36 -7.5 67.5t-29 55t-48.5 37t-66 13.5zM405 616q0 27 -18 46t-47 19q-32 0 -55.5 -22.5t-23.5 -54.5q0 -27 18 -46.5t47 -19.5q31 0 55 23t24 55zM223 600q0 24 10 46t27 38t38.5 25.5t45.5 9.5q21 0 39.5 -8
t31.5 -21.5t20.5 -31.5t7.5 -39q0 -24 -10 -45.5t-26.5 -38t-38.5 -26t-46 -9.5q-21 0 -39.5 8t-31.5 21.5t-20.5 31.5t-7.5 39zM204 774l263 137l26 -52l-263 -137z" />
    <glyph glyph-name="AEacute" unicode="&#x1fc;" horiz-adv-x="847" 
d="M520 638l-27 -259h314l-7 -62h-314l-26 -255h314l-7 -62h-382l13 125h-246l-75 -125h-75l424 700h415l-7 -62h-314zM405 188l46 436l-262 -436h216zM487 749l-26 53l264 137l25 -53z" />
    <glyph glyph-name="aeacute" unicode="&#x1fd;" horiz-adv-x="916" 
d="M556 443l-7 -61q27 32 67.5 51.5t90.5 19.5q41 0 75.5 -13.5t59 -38t38.5 -58.5t14 -74q0 -19 -2.5 -32.5t-6.5 -29.5h-353q-4 -34 2.5 -63.5t23 -51t44 -34t66.5 -12.5q57 0 90.5 24t49.5 57h67q-9 -27 -28 -51.5t-46 -44t-61.5 -31t-75.5 -11.5q-53 0 -90 19.5
t-58 54.5l-7 -63h-65l10 93q-26 -45 -74.5 -74.5t-111.5 -29.5q-46 0 -83.5 17t-64 45.5t-41 67t-14.5 81.5q0 51 19.5 96.5t53.5 80.5t80 55.5t99 20.5q66 0 106.5 -29.5t57.5 -74.5l10 94h65zM700 397q-63 0 -107.5 -37.5t-54.5 -101.5h291q3 31 -5 57t-25 44t-42.5 28
t-56.5 10zM282 49q40 0 74.5 15.5t59 41.5t38.5 60t14 72q0 32 -10.5 60.5t-30 49.5t-47.5 33.5t-64 12.5q-40 0 -74 -15.5t-59 -41.5t-39 -60t-14 -72q0 -32 10 -60.5t29.5 -49.5t48 -33.5t64.5 -12.5zM402 501l-26 52l264 137l25 -52z" />
    <glyph glyph-name="Oslashacute" unicode="&#x1fe;" horiz-adv-x="806" 
d="M402 -15q-69 0 -124 21l-43 -81l-46 20l43 82q-38 21 -66.5 52t-48 68.5t-29.5 80.5t-10 87q0 76 28.5 148.5t81 128t126.5 89.5t164 34q61 0 112 -17l41 75l44 -21l-38 -74q40 -20 71 -51.5t52 -70t31.5 -82.5t10.5 -90q0 -76 -29 -148t-81.5 -127.5t-126 -89.5
t-163.5 -34zM149 322q0 -36 7.5 -70t22.5 -64.5t36.5 -56t49.5 -43.5l294 551q-40 14 -89 14q-72 0 -131 -28t-101.5 -74.5t-65.5 -106t-23 -122.5zM731 378q0 75 -32.5 140t-95.5 100l-294 -553q43 -18 99 -18q72 0 131.5 28t102 74.5t66 106t23.5 122.5zM373 749l-26 52
l263 137l27 -52z" />
    <glyph glyph-name="oslashacute" unicode="&#x1ff;" horiz-adv-x="552" 
d="M426 429q52 -25 80 -75.5t28 -111.5q0 -50 -19 -96t-53.5 -81t-82 -55.5t-104.5 -20.5q-23 0 -42 3.5t-36 9.5l-37 -70l-41 18l37 71q-44 27 -67.5 74.5t-23.5 103.5q0 51 19.5 97t53.5 81t81 55.5t102 20.5q18 0 34 -2t31 -6l34 64l41 -17zM278 49q43 0 78 15.5t60 41
t38.5 59.5t13.5 72q0 44 -18.5 79.5t-53.5 55.5l-169 -315q12 -5 25 -6.5t26 -1.5zM130 205q0 -39 15 -73t43 -54l167 311q-10 2 -18.5 3.5t-20.5 1.5q-40 0 -74 -15.5t-59 -41.5t-39 -60t-14 -72zM220 510l-26 52l264 137l25 -52z" />
    <glyph glyph-name="Scommaaccent" unicode="&#x218;" horiz-adv-x="572" 
d="M138 217q-8 -80 37.5 -125t126.5 -45q38 0 70 10.5t55.5 29t36.5 45.5t13 60t-12 54.5t-32 36t-45 23.5t-52 16q-41 12 -78.5 25.5t-66.5 33.5t-46 50.5t-17 76.5t17.5 84t49 65.5t74.5 42.5t95 15t91 -15t64.5 -43t36.5 -66.5t7 -85.5h-68q3 33 -4 60t-23.5 46.5
t-43.5 30.5t-66 11q-72 0 -116.5 -37t-44.5 -97q0 -31 12 -51.5t31.5 -34.5t45 -23.5t53.5 -16.5q39 -11 76 -24.5t66.5 -34.5t47 -53t17.5 -80q0 -50 -19.5 -89.5t-54 -68t-80.5 -43.5t-100 -15q-58 0 -102 17.5t-72.5 48t-40.5 73t-7 93.5h68zM237 -82q0 22 16 37.5
t40 15.5q25 0 39 -19.5t14 -55.5q0 -53 -31 -81.5t-87 -28.5l3 31q37 0 54.5 15.5t17.5 37.5q0 6 -1 8l-2 4q-9 -7 -22 -7q-18 0 -29.5 12.5t-11.5 30.5z" />
    <glyph glyph-name="scommaaccent" unicode="&#x219;" horiz-adv-x="450" 
d="M174 -68q0 22 15.5 37.5t39.5 15.5q26 0 40.5 -19.5t14.5 -55.5q0 -57 -34 -83.5t-85 -26.5l3 31q48 0 60 31q6 11 7.5 19.5t1.5 14.5q-9 -7 -22 -7q-18 0 -29.5 12.5t-11.5 30.5zM124 150q-3 -30 4 -50t22.5 -33t37.5 -18.5t48 -5.5q54 0 84.5 21t30.5 59q0 20 -9.5 32
t-27 20.5t-43 15.5t-57.5 16q-27 7 -49.5 14.5t-39 19.5t-25.5 29.5t-9 44.5q0 34 14 59.5t38 43t56 26.5t68 9q38 0 69 -10t52 -29t31 -46.5t6 -61.5h-64q5 46 -21 70t-76 24q-47 0 -77.5 -21t-30.5 -59q0 -18 8.5 -29.5t24 -19.5t39 -14t53.5 -15q27 -7 51 -14.5t42 -19.5
t28.5 -31t10.5 -48q0 -33 -13.5 -59t-37.5 -44t-57.5 -27.5t-73.5 -9.5q-39 0 -72.5 9.5t-56.5 29.5t-35 50t-7 72h64z" />
    <glyph glyph-name="uni021A" unicode="&#x21a;" horiz-adv-x="474" 
d="M269 638h-188l7 62h446l-7 -62h-190l-67 -638h-68zM180 -71q0 22 15.5 37.5t39.5 15.5q26 0 40 -19.5t14 -55.5q0 -56 -32.5 -83t-85.5 -27l3 31q38 0 55 16t17 36q0 9 -3 12q-8 -6 -22 -6q-19 0 -30 12.5t-11 30.5z" />
    <glyph glyph-name="uni021B" unicode="&#x21b;" horiz-adv-x="329" 
d="M67 443h89l17 164h66l-17 -164h128l-6 -56h-128l-24 -226q-4 -36 0 -57t14 -32t24.5 -14.5t31.5 -3.5q14 0 32.5 1.5t31.5 3.5l-7 -59q-13 -2 -34 -4t-42 -2t-44.5 4t-41.5 19.5t-28 46.5t-4 84l25 239h-89zM137 -71q0 22 16 37.5t40 15.5q25 0 39.5 -19t14.5 -56
q0 -57 -33.5 -83.5t-84.5 -26.5l3 31q26 0 40 8.5t21 22.5q5 11 6.5 20t1.5 14q-9 -7 -22 -7q-18 0 -30 12.5t-12 30.5z" />
    <glyph glyph-name="hsuperior" unicode="&#x2b0;" horiz-adv-x="377" 
d="M145 700h51l-19 -186q13 24 38 40.5t61 16.5q26 0 42 -8t25 -20q20 -26 14 -81l-15 -147h-51l14 134q4 36 -9.5 56.5t-44.5 20.5q-19 0 -33.5 -7.5t-25 -19.5t-16.5 -27t-7 -30l-13 -127h-51z" />
    <glyph glyph-name="jsuperior" unicode="&#x2b2;" horiz-adv-x="211" 
d="M159 253q-5 -43 -24.5 -60.5t-48.5 -17.5q-24 0 -43 7l4 41q8 -2 13.5 -3.5t11.5 -1.5q31 0 36 38l32 309h52zM136 654q0 17 13 30t31 13q16 0 26 -10.5t10 -25.5q0 -17 -13.5 -30t-30.5 -13q-16 0 -26 10.5t-10 25.5z" />
    <glyph glyph-name="wsuperior" unicode="&#x2b7;" horiz-adv-x="470" 
d="M288 506l-85 -191h-42l-69 250h54l44 -182l79 182h49l41 -182l83 182h54l-121 -250h-42z" />
    <glyph glyph-name="ysuperior" unicode="&#x2b8;" horiz-adv-x="383" 
d="M210 174q-60 0 -88.5 26.5t-23.5 84.5h52q-2 -33 11.5 -51.5t51.5 -18.5q35 0 54.5 19t24.5 65l7 69q-13 -24 -38 -40.5t-62 -16.5q-22 0 -40 7t-29 22q-11 14 -13 33.5t1 49.5l15 142h52l-14 -131q-4 -36 7 -58t46 -22q38 0 58 25t24 60l13 126h53l-28 -264
q-8 -70 -41 -98.5t-93 -28.5z" />
    <glyph glyph-name="circumflex" unicode="&#x2c6;" horiz-adv-x="446" 
d="M310 842l165 -145l-46 -46l-127 112l-151 -112l-36 46z" />
    <glyph glyph-name="caron" unicode="&#x2c7;" horiz-adv-x="402" 
d="M120 749l41 46l111 -114l137 114l31 -46l-176 -145z" />
    <glyph glyph-name="breve" unicode="&#x2d8;" horiz-adv-x="520" 
d="M208 846q7 -47 42 -72t88 -25t94.5 25t56.5 72h56q-8 -33 -28 -60t-48.5 -46t-63.5 -29.5t-72 -10.5t-69.5 10.5t-56.5 30t-39 46t-17 59.5h57z" />
    <glyph glyph-name="dotaccent" unicode="&#x2d9;" horiz-adv-x="382" 
d="M199 642q0 26 20 45.5t46 19.5q23 0 38.5 -16t15.5 -39q0 -26 -20 -45.5t-46 -19.5q-23 0 -38.5 16t-15.5 39z" />
    <glyph glyph-name="ring" unicode="&#x2da;" horiz-adv-x="452" 
d="M313 835q24 0 44.5 -9t35.5 -24t23 -35.5t8 -43.5q0 -27 -11 -51.5t-30 -42.5t-43 -29t-51 -11q-24 0 -44.5 9t-35.5 24.5t-23.5 36t-8.5 43.5q0 27 11.5 51t30 42.5t43 29t51.5 10.5zM308 786q-16 0 -30.5 -6.5t-26 -17.5t-18 -25.5t-6.5 -30.5q0 -27 19 -46.5t48 -19.5
q16 0 30.5 6.5t25.5 17t17.5 25t6.5 30.5q0 27 -18.5 47t-47.5 20z" />
    <glyph glyph-name="ogonek" unicode="&#x2db;" horiz-adv-x="410" 
d="M294 -197q-17 -5 -40.5 -10t-47.5 -5q-55 0 -81 26t-26 63t24 65.5t69 57.5h47q-32 -22 -53.5 -47.5t-21.5 -54.5q0 -24 16 -41.5t49 -17.5q16 0 36 4t35 10z" />
    <glyph glyph-name="tilde" unicode="&#x2dc;" horiz-adv-x="469" 
d="M137 662q24 14 41 22t29.5 11.5t21 4t15.5 0.5q11 0 30 -4t39.5 -9.5t40.5 -9.5t34 -4q5 0 11 1t14.5 4t21 8t30.5 14l22 -44q-41 -26 -64 -31.5t-35 -5.5q-18 0 -37 4t-38 9t-36.5 9t-33.5 4q-14 0 -32 -5t-49 -22z" />
    <glyph glyph-name="hungarumlaut" unicode="&#x2dd;" horiz-adv-x="459" 
d="M455 734l55 -29l-164 -156l-33 19zM260 734l55 -29l-164 -156l-33 19z" />
    <glyph glyph-name="xsuperior" unicode="&#x2e3;" horiz-adv-x="318" 
d="M312 315h-60l-51 89l-68 -89h-61l102 126l-75 124h61l49 -88l68 88h61l-102 -124z" />
    <glyph glyph-name="Delta" unicode="&#x394;" horiz-adv-x="546" 
d="M108 62h344l-117 529zM540 0h-534l315 700h52z" />
    <glyph glyph-name="Omega" unicode="&#x3a9;" horiz-adv-x="720" 
d="M427 650q-63 0 -113 -22t-85.5 -59.5t-54 -87t-18.5 -104.5q0 -44 12 -83.5t35 -71t57.5 -53.5t78.5 -30l-15 -139h-255l7 62h200l4 38q-47 14 -83 41t-60.5 63t-37.5 79t-13 91q0 67 25 128.5t70.5 108t109.5 74t141 27.5q69 0 122 -22t89 -60t55 -88.5t19 -108.5
q0 -59 -19 -113t-53 -97.5t-81 -75.5t-103 -48l-3 -37h200l-7 -62h-255l15 139q55 10 99 37.5t75 66.5t47.5 87t16.5 99q0 46 -14 86.5t-42 70.5t-69.5 47t-96.5 17z" />
    <glyph glyph-name="mu" unicode="&#x3bc;" 
d="M129 443h65l-25 -241q-3 -33 1 -61t17 -48.5t36 -32.5t56 -12q38 0 67.5 14.5t50 38.5t33 54t15.5 61l24 227h65l-47 -443h-65l10 96q-23 -45 -69.5 -76t-108.5 -31q-71 0 -102 47l-31 -293h-66z" />
    <glyph glyph-name="pi" unicode="&#x3c0;" 
d="M546 384h-55l-40 -384h-65l40 384h-202l-40 -384h-65l40 384h-56l6 59h443z" />
    <glyph glyph-name="Wgrave" unicode="&#x1e80;" horiz-adv-x="946" 
d="M535 584l-239 -584h-53l-163 700h72l129 -585l239 585h54l116 -585l252 585h72l-311 -700h-53zM427 886l36 53l235 -137l-37 -53z" />
    <glyph glyph-name="wgrave" unicode="&#x1e81;" horiz-adv-x="715" 
d="M396 370l-170 -370h-47l-124 443h70l88 -344l159 344h65l86 -344l161 344h70l-218 -443h-47zM285 647l38 52l235 -137l-38 -52z" />
    <glyph glyph-name="Wacute" unicode="&#x1e82;" horiz-adv-x="946" 
d="M535 584l-239 -584h-53l-163 700h72l129 -585l239 585h54l116 -585l252 585h72l-311 -700h-53zM443 749l-25 53l263 137l26 -53z" />
    <glyph glyph-name="wacute" unicode="&#x1e83;" horiz-adv-x="715" 
d="M396 370l-170 -370h-47l-124 443h70l88 -344l159 344h65l86 -344l161 344h70l-218 -443h-47zM303 510l-26 52l263 137l26 -52z" />
    <glyph glyph-name="Wdieresis" unicode="&#x1e84;" horiz-adv-x="946" 
d="M535 584l-239 -584h-53l-163 700h72l129 -585l239 585h54l116 -585l252 585h72l-311 -700h-53zM617 834q0 26 19.5 44.5t45.5 18.5q23 0 37.5 -15.5t14.5 -37.5q0 -26 -19 -44.5t-45 -18.5q-23 0 -38 15t-15 38zM388 833q0 26 19 45t45 19q23 0 37.5 -15t14.5 -38
q0 -26 -19 -44.5t-45 -18.5q-23 0 -37.5 14.5t-14.5 37.5z" />
    <glyph glyph-name="wdieresis" unicode="&#x1e85;" horiz-adv-x="715" 
d="M396 370l-170 -370h-47l-124 443h70l88 -344l159 344h65l86 -344l161 344h70l-218 -443h-47zM478 600q0 26 18.5 44.5t44.5 18.5q23 0 38 -15t15 -38q0 -26 -19 -44t-45 -18q-23 0 -37.5 15t-14.5 37zM248 600q0 26 18.5 44.5t44.5 18.5q23 0 38 -15t15 -38
q0 -26 -19 -44t-45 -18q-23 0 -37.5 15t-14.5 37z" />
    <glyph glyph-name="Ygrave" unicode="&#x1ef2;" 
d="M209 0h-75l171 277l-222 423h79l185 -353l218 353h75zM236 886l36 53l235 -137l-37 -53z" />
    <glyph glyph-name="ygrave" unicode="&#x1ef3;" horiz-adv-x="568" 
d="M256 -267q-205 0 -188 202h66q-4 -76 28 -111t101 -35q32 0 58.5 8t46 27t32 49t17.5 75l16 148q-24 -45 -68 -76t-114 -31q-86 0 -126 54q-17 23 -22.5 56t0.5 89l27 255h66l-25 -236q-8 -72 15 -115.5t91 -43.5q40 0 70 14.5t51 38.5t33 54t15 61l24 227h64l-52 -495
q-12 -114 -69.5 -164.5t-156.5 -50.5zM211 647l37 52l235 -137l-37 -52z" />
    <glyph glyph-name="thinspace" unicode="&#x2009;" horiz-adv-x="206" 
 />
    <glyph glyph-name="endash" unicode="&#x2013;" horiz-adv-x="503" 
d="M77 255l6 59h403l-6 -59h-403z" />
    <glyph glyph-name="emdash" unicode="&#x2014;" horiz-adv-x="1006" 
d="M77 255l6 59h906l-6 -59h-906z" />
    <glyph glyph-name="quoteleft" unicode="&#x2018;" horiz-adv-x="256" 
d="M256 580q0 -26 -19.5 -45.5t-48.5 -19.5q-31 0 -48 23t-17 67q0 69 39.5 102t103.5 33l-3 -35q-58 0 -74 -41q-8 -14 -9 -23.5t-1 -17.5q10 8 27 8q22 0 36 -14.5t14 -36.5z" />
    <glyph glyph-name="quoteright" unicode="&#x2019;" horiz-adv-x="256" 
d="M131 675q0 26 20 45.5t49 19.5q31 0 47.5 -23.5t16.5 -67.5q0 -69 -39.5 -101.5t-103.5 -32.5l4 35q28 0 46.5 11t26.5 30q8 14 9 24t1 17q-8 -8 -26 -8q-23 0 -37 14.5t-14 36.5z" />
    <glyph glyph-name="quotesinglbase" unicode="&#x201a;" horiz-adv-x="256" 
d="M65 42q0 26 19.5 45.5t48.5 19.5q31 0 48 -23t17 -68q0 -68 -39 -101t-104 -33l4 35q57 0 73 41q8 14 9 23.5t1 17.5q-8 -8 -27 -8q-22 0 -36 14.5t-14 36.5z" />
    <glyph glyph-name="quotedblleft" unicode="&#x201c;" horiz-adv-x="418" 
d="M418 580q0 -26 -19 -45.5t-48 -19.5q-31 0 -48.5 23t-17.5 68q0 66 39 100t104 34l-3 -35q-27 0 -46.5 -10.5t-27.5 -30.5q-7 -14 -8.5 -23.5t-0.5 -17.5q10 8 26 8q23 0 36.5 -14.5t13.5 -36.5zM256 580q0 -26 -19.5 -45.5t-48.5 -19.5q-31 0 -48 23t-17 67
q0 69 39.5 102t103.5 33l-3 -35q-58 0 -74 -41q-8 -14 -9 -23.5t-1 -17.5q10 8 27 8q22 0 36 -14.5t14 -36.5z" />
    <glyph glyph-name="quotedblright" unicode="&#x201d;" horiz-adv-x="418" 
d="M131 675q0 26 20 45.5t49 19.5q31 0 47.5 -23.5t16.5 -67.5q0 -69 -39.5 -101.5t-103.5 -32.5l4 35q28 0 46.5 11t26.5 30q8 14 9 24t1 17q-8 -8 -26 -8q-23 0 -37 14.5t-14 36.5zM293 676q0 26 19.5 45t49.5 19q31 0 47.5 -23t16.5 -67q0 -69 -39.5 -102t-103.5 -33
l4 35q29 0 47 11t26 30q8 14 9.5 24t0.5 17q-8 -8 -25 -8q-23 0 -37.5 14.5t-14.5 37.5z" />
    <glyph glyph-name="quotedblbase" unicode="&#x201e;" horiz-adv-x="418" 
d="M65 42q0 26 19.5 45.5t48.5 19.5q31 0 48 -23t17 -68q0 -68 -39 -101t-104 -33l4 35q57 0 73 41q8 14 9 23.5t1 17.5q-8 -8 -27 -8q-22 0 -36 14.5t-14 36.5zM227 43q0 26 19.5 45t49.5 19q31 0 47.5 -23t16.5 -67q0 -69 -39.5 -102t-103.5 -33l4 35q57 0 73 41
q8 14 9.5 23.5t0.5 17.5q-8 -8 -26 -8q-22 0 -36.5 14.5t-14.5 37.5z" />
    <glyph glyph-name="dagger" unicode="&#x2020;" horiz-adv-x="403" 
d="M150 -182l60 570h-132l6 59h132l29 270h65l-29 -270h132l-6 -59h-132l-60 -570h-65z" />
    <glyph glyph-name="daggerdbl" unicode="&#x2021;" horiz-adv-x="403" 
d="M309 717l-28 -270h132l-6 -58h-132l-33 -313h132l-6 -58h-132l-21 -200h-65l21 200h-132l6 58h132l33 313h-132l6 58h132l28 270h65z" />
    <glyph glyph-name="bullet" unicode="&#x2022;" horiz-adv-x="343" 
d="M87 302q0 26 10.5 49t28.5 40.5t41 27.5t49 10q46 0 75.5 -31t29.5 -76q0 -26 -10.5 -49t-28 -40t-41 -27t-48.5 -10q-47 0 -76.5 30.5t-29.5 75.5z" />
    <glyph glyph-name="ellipsis" unicode="&#x2026;" horiz-adv-x="914" 
d="M60 50q0 27 20 46t46 19q24 0 39.5 -16t15.5 -39q0 -26 -20 -45.5t-47 -19.5q-24 0 -39 16t-15 39zM402 49q0 27 20 46.5t46 19.5q24 0 39.5 -16t15.5 -39q0 -27 -20.5 -46t-46.5 -19q-24 0 -39 15.5t-15 38.5zM744 49q0 27 20 46t46 19q24 0 39.5 -16t15.5 -39
q0 -26 -20 -45.5t-47 -19.5q-24 0 -39 16t-15 39z" />
    <glyph glyph-name="perthousand" unicode="&#x2030;" horiz-adv-x="1234" 
d="M964 123q-3 -34 16.5 -59t55.5 -25q37 0 61 25t28 59l15 139q4 34 -15.5 59t-56.5 25q-36 0 -60.5 -25t-28.5 -59zM1180 119q-3 -26 -15 -49t-31.5 -40.5t-46 -27.5t-56.5 -10q-31 0 -55 10.5t-40 28.5t-23 41.5t-4 50.5l15 143q3 26 15 49t31.5 40.5t46 27.5t56.5 10
q31 0 55 -10.5t39.5 -28.5t23 -41.5t4.5 -50.5zM722 393q31 0 54.5 -10.5t39.5 -28.5t23 -41.5t4 -50.5l-15 -143q-3 -26 -15 -49t-31.5 -40.5t-45.5 -27.5t-56 -10q-31 0 -55 10.5t-40 28.5t-23 41.5t-4 50.5l15 143q3 26 15 49t31.5 40.5t46 27.5t56.5 10zM717 346
q-37 0 -61 -25t-28 -59l-15 -139q-4 -34 15.5 -59t56.5 -25t60.5 25t27.5 59l15 139q4 34 -15 59t-56 25zM126 580q3 26 15 49t31.5 40.5t45.5 27.5t56 10q31 0 55 -10.5t39.5 -28.5t23 -41.5t4.5 -50.5l-15 -143q-3 -26 -15 -49t-31.5 -40t-45.5 -27t-56 -10
q-31 0 -55 10.5t-40 28t-23 41t-4 50.5zM341 576q2 16 -2 31t-13 27t-23 19t-33 7q-20 0 -35.5 -7.5t-27 -19.5t-18.5 -27t-8 -30l-15 -139q-4 -33 15 -58.5t57 -25.5q37 0 60.5 25t27.5 59zM715 752l48 -31l-516 -753l-49 31z" />
    <glyph glyph-name="guilsinglleft" unicode="&#x2039;" horiz-adv-x="276" 
d="M246 100l-178 170l4 42l214 170l-7 -67l-155 -124l129 -124z" />
    <glyph glyph-name="guilsinglright" unicode="&#x203a;" horiz-adv-x="276" 
d="M58 167l155 124l-129 124l7 67l178 -170l-4 -42l-214 -170z" />
    <glyph glyph-name="fraction" unicode="&#x2044;" horiz-adv-x="209" 
d="M376 752l49 -31l-516 -753l-49 31z" />
    <glyph glyph-name="zerosuperior" unicode="&#x2070;" horiz-adv-x="388" 
d="M120 581q4 26 16.5 49t31.5 40.5t44.5 27.5t55.5 10q31 0 55 -10.5t39.5 -28.5t23 -41.5t4.5 -50.5l-15 -143q-3 -26 -15 -49t-31.5 -40.5t-45.5 -27.5t-56 -10q-31 0 -55 10.5t-40 28.5t-23 41.5t-4 50.5zM335 577q4 34 -15 59t-56 25t-61 -25t-28 -59l-15 -139
q-4 -34 15.5 -59t56.5 -25t60.5 25t27.5 59z" />
    <glyph glyph-name="foursuperior" unicode="&#x2074;" horiz-adv-x="375" 
d="M263 439h-151l27 261h55l-22 -213h96l12 116h56l-12 -116h57l-5 -48h-57l-13 -124h-56z" />
    <glyph glyph-name="fivesuperior" unicode="&#x2075;" horiz-adv-x="394" 
d="M148 700h235l-5 -44h-184l-14 -133q14 22 39 33t54 11q27 0 47 -9t34 -25t21 -36.5t7 -43.5q0 -29 -11 -55t-30.5 -46t-47 -32t-60.5 -12q-32 0 -56 10.5t-39.5 28.5t-23 42t-4.5 50h54q-3 -34 16.5 -59t57.5 -25q19 0 35.5 7.5t28.5 20.5t19 30t7 35q0 31 -19 53t-55 22
q-49 0 -77 -45h-53z" />
    <glyph glyph-name="sixsuperior" unicode="&#x2076;" horiz-adv-x="370" 
d="M217 309q-30 0 -53 9.5t-38.5 25.5t-24 38t-8.5 46q0 47 30 86l137 186h63l-105 -140q16 9 41 7q51 -3 79 -37t28 -79q0 -28 -11 -53.5t-30.5 -45t-47 -31.5t-60.5 -12zM221 355q40 0 65 28t25 65q0 32 -19 54t-54 22q-20 0 -36.5 -7.5t-28.5 -20.5t-18.5 -29.5
t-6.5 -35.5q0 -31 19 -53.5t54 -22.5z" />
    <glyph glyph-name="sevensuperior" unicode="&#x2077;" horiz-adv-x="326" 
d="M373 700l-215 -385h-59l191 338h-171l4 47h250z" />
    <glyph glyph-name="eightsuperior" unicode="&#x2078;" horiz-adv-x="383" 
d="M225 308q-60 0 -92 29.5t-32 73.5q0 37 22.5 66.5t60.5 37.5q-28 8 -42 29t-14 48q0 24 10 44.5t28 36.5t43 25t56 9q57 0 87 -28t30 -69q0 -32 -19 -58.5t-54 -36.5q30 -8 46 -31.5t16 -53.5q0 -25 -10.5 -47t-29.5 -38.5t-46 -26.5t-60 -10zM249 534q36 0 58 20.5
t22 49.5q0 26 -18 42.5t-50 16.5q-35 0 -57 -20.5t-22 -50.5q0 -25 17 -41.5t50 -16.5zM229 352q40 0 64 22t24 54q0 26 -18.5 45t-55.5 19q-40 0 -63.5 -22.5t-23.5 -53.5q0 -28 19 -46t54 -18z" />
    <glyph glyph-name="ninesuperior" unicode="&#x2079;" horiz-adv-x="370" 
d="M260 706q30 0 52.5 -9.5t38.5 -25.5t24 -38t8 -46q0 -25 -8.5 -46t-22.5 -40l-137 -186h-62l105 140q-7 -7 -16 -8.5t-16 -1.5q-51 0 -83.5 33.5t-32.5 84.5q0 28 11 54t31 46t47.5 31.5t60.5 11.5zM255 660q-20 0 -36.5 -7.5t-28.5 -20.5t-18.5 -30t-6.5 -36
q0 -31 19 -53t54 -22q40 0 65 27.5t25 64.5q0 32 -19 54.5t-54 22.5z" />
    <glyph glyph-name="plussuperior" unicode="&#x207a;" horiz-adv-x="383" 
d="M206 359l10 91h-89l5 43h89l9 91h46l-9 -91h89l-5 -43h-89l-10 -91h-46z" />
    <glyph glyph-name="minussuperior" unicode="&#x207b;" horiz-adv-x="384" 
d="M125 451l5 43h228l-5 -43h-228z" />
    <glyph glyph-name="equalsuperior" unicode="&#x207c;" horiz-adv-x="384" 
d="M130 498l5 43h228l-5 -43h-228zM120 400l5 44h228l-5 -44h-228z" />
    <glyph glyph-name="parenleftsuperior" unicode="&#x207d;" horiz-adv-x="257" 
d="M290 699q-40 0 -65.5 -26.5t-29.5 -63.5l-30 -285q-4 -37 16 -63.5t60 -26.5l-5 -47q-32 0 -57 11t-41 29.5t-23 43.5t-4 53l30 285q3 28 15.5 53t32.5 43.5t47 29.5t59 11z" />
    <glyph glyph-name="parenrightsuperior" unicode="&#x207e;" horiz-adv-x="257" 
d="M119 746q32 0 57 -11t41 -29.5t23 -43.5t4 -53l-30 -285q-3 -28 -15.5 -53t-32.5 -43.5t-47 -29.5t-59 -11l5 47q40 0 65.5 26.5t29.5 63.5l30 285q4 37 -16 63.5t-60 26.5z" />
    <glyph glyph-name="nsuperior" unicode="&#x207f;" horiz-adv-x="380" 
d="M131 565h52l-5 -51q12 23 37 40t63 17q25 0 41.5 -7.5t26.5 -20.5q20 -26 14 -81l-15 -147h-52l14 134q4 35 -9.5 56t-45.5 21q-37 0 -57.5 -26t-24.5 -58l-13 -127h-52z" />
    <glyph glyph-name="zeroinferior" unicode="&#x2080;" horiz-adv-x="388" 
d="M65 66q4 26 16.5 49t31.5 40.5t44.5 27.5t55.5 10q31 0 55 -10.5t39.5 -28.5t23 -41.5t4.5 -50.5l-15 -143q-3 -26 -15 -49t-31.5 -40.5t-45.5 -27.5t-56 -10q-31 0 -55 10.5t-40 28.5t-23 41.5t-4 50.5zM280 62q4 34 -15 59t-56 25t-61 -25t-28 -59l-15 -139
q-4 -34 15.5 -59t56.5 -25t60.5 25t27.5 59z" />
    <glyph glyph-name="oneinferior" unicode="&#x2081;" horiz-adv-x="253" 
d="M59 119q26 0 43 4t27 12t14.5 20.5t6.5 29.5h50l-40 -385h-56l29 279h-78z" />
    <glyph glyph-name="twoinferior" unicode="&#x2082;" horiz-adv-x="363" 
d="M34 -200q5 48 16 79.5t27.5 52.5t38.5 34.5t50 26.5q21 9 39 18t30.5 20t20 25t7.5 33q0 29 -16.5 44t-45.5 15q-34 0 -56 -20.5t-27 -57.5h-55q7 56 45.5 89t97.5 33q50 0 81 -25.5t31 -74.5q0 -29 -11 -50t-28 -36.5t-37.5 -26.5t-39.5 -20q-26 -12 -44 -22.5
t-29.5 -22.5t-17.5 -28t-9 -40h192l-5 -46h-255v0z" />
    <glyph glyph-name="threeinferior" unicode="&#x2083;" horiz-adv-x="373" 
d="M95 -83q-4 -36 15.5 -57t55.5 -21q39 0 61.5 22.5t22.5 54.5q0 27 -17.5 44.5t-52.5 17.5h-33l5 44h33q39 0 58.5 20t19.5 49q0 28 -17 42.5t-47 14.5q-36 0 -55.5 -19t-22.5 -51h-55q5 48 39.5 81t96.5 33q52 0 84 -25t32 -70q0 -38 -21.5 -63.5t-54.5 -33.5
q29 -8 46 -29.5t17 -56.5q0 -28 -11.5 -50.5t-31 -38t-45.5 -24t-55 -8.5q-62 0 -95 34.5t-27 89.5h55z" />
    <glyph glyph-name="fourinferior" unicode="&#x2084;" horiz-adv-x="375" 
d="M209 -76h-151l27 261h55l-22 -213h96l12 116h56l-12 -116h57l-5 -48h-57l-13 -124h-56z" />
    <glyph glyph-name="fiveinferior" unicode="&#x2085;" horiz-adv-x="394" 
d="M94 185h235l-5 -44h-184l-14 -133q14 22 39 33t54 11q27 0 47 -9t34 -25t21 -36.5t7 -43.5q0 -29 -11 -55t-30.5 -46t-47 -32t-60.5 -12q-32 0 -56 10.5t-39.5 28.5t-23 42t-4.5 50h54q-3 -34 16.5 -59t57.5 -25q40 0 65 28t25 65q0 31 -19 53t-55 22q-49 0 -77 -45h-53z
" />
    <glyph glyph-name="sixinferior" unicode="&#x2086;" horiz-adv-x="370" 
d="M163 -206q-30 0 -53 9.5t-38.5 25.5t-24 38t-8.5 46q0 47 30 86l137 186h63l-105 -140q16 9 41 7q51 -3 79 -37t28 -79q0 -28 -11 -53.5t-30.5 -45t-47 -31.5t-60.5 -12zM167 -160q40 0 65 28t25 65q0 32 -19 54t-54 22q-20 0 -36.5 -7.5t-28.5 -20.5t-18.5 -29.5
t-6.5 -35.5q0 -31 19 -53.5t54 -22.5z" />
    <glyph glyph-name="seveninferior" unicode="&#x2087;" horiz-adv-x="326" 
d="M319 185l-215 -385h-59l191 338h-171l4 47h250z" />
    <glyph glyph-name="eightinferior" unicode="&#x2088;" horiz-adv-x="383" 
d="M170 -207q-60 0 -92 29.5t-32 73.5q0 37 22.5 66.5t60.5 37.5q-28 8 -42 29t-14 48q0 24 10 44.5t28 36.5t43 25t56 9q57 0 87 -28t30 -69q0 -32 -19 -58.5t-54 -36.5q30 -8 46 -31.5t16 -53.5q0 -25 -10.5 -47t-29.5 -38.5t-46 -26.5t-60 -10zM194 19q36 0 58 20.5
t22 49.5q0 26 -18 42.5t-50 16.5q-35 0 -57 -20.5t-22 -50.5q0 -25 17 -41.5t50 -16.5zM174 -163q39 0 63.5 22t24.5 54q0 26 -18.5 45t-55.5 19q-40 0 -63.5 -22.5t-23.5 -54.5q0 -27 19 -45t54 -18z" />
    <glyph glyph-name="nineinferior" unicode="&#x2089;" horiz-adv-x="370" 
d="M206 191q30 0 52.5 -9.5t38.5 -25.5t24 -38t8 -46q0 -25 -8.5 -46t-22.5 -40l-137 -186h-62l105 140q-7 -7 -16 -8.5t-16 -1.5q-51 0 -83.5 33.5t-32.5 84.5q0 28 11 54t31 46t47.5 31.5t60.5 11.5zM201 145q-20 0 -36.5 -7.5t-28.5 -20.5t-18.5 -30t-6.5 -36
q0 -31 19 -53t54 -22q40 0 65 27.5t25 64.5q0 32 -19 54.5t-54 22.5z" />
    <glyph glyph-name="parenleftinferior" unicode="&#x208d;" horiz-adv-x="257" 
d="M236 184q-40 0 -65.5 -26.5t-29.5 -63.5l-30 -285q-4 -37 16 -63.5t60 -26.5l-5 -47q-32 0 -57 11t-41 29.5t-23 43.5t-4 53l30 285q3 28 15.5 53t32.5 43.5t47 29.5t59 11z" />
    <glyph glyph-name="parenrightinferior" unicode="&#x208e;" horiz-adv-x="257" 
d="M65 231q32 0 57 -11t41 -29.5t23 -43.5t4 -53l-30 -285q-3 -28 -15.5 -53t-32.5 -43.5t-47 -29.5t-59 -11l5 47q40 0 65.5 26.5t29.5 63.5l30 285q4 37 -16 63.5t-60 26.5z" />
    <glyph glyph-name="Euro" unicode="&#x20ac;" horiz-adv-x="605" 
d="M577 222q-5 -47 -26 -89.5t-55.5 -74.5t-79.5 -50.5t-98 -18.5t-94 19t-67.5 51t-38.5 74t-7 89l2 20h-64l17 52h52l12 109h-62l18 51h50l2 22q4 48 25.5 90.5t55.5 74t79 50t97 18.5q51 0 91 -17.5t67 -47t40.5 -69.5t10.5 -85h-69q1 34 -8.5 62.5t-29 49.5t-47.5 33
t-62 12q-38 0 -70 -14t-56 -37.5t-38.5 -54.5t-17.5 -65l-2 -22h247l-18 -51h-235l-12 -109h245l-17 -52h-233l-2 -20q-3 -35 5.5 -66t27 -54t47.5 -36.5t66 -13.5t69 13.5t56 36.5t39 54t19 66h69z" />
    <glyph glyph-name="afii61289" unicode="&#x2113;" horiz-adv-x="387" 
d="M243 -11q-14 0 -38 3.5t-46 20.5t-35.5 53.5t-5.5 101.5l1 8q-5 -3 -14.5 -10.5t-20.5 -15.5t-21 -15.5t-14 -11.5l-26 49l103 76l27 259q11 102 47 156t108 54q61 0 91 -37.5t30 -103.5q0 -49 -16.5 -93t-48.5 -86t-78.5 -85t-105.5 -90l-6 -58q-5 -43 3.5 -66.5t22 -35
t28.5 -13.5t25 -2q35 0 56 7t41 21l3 -51q-9 -8 -18.5 -14t-22 -11t-29 -7.5t-40.5 -2.5zM307 663q-45 0 -67 -40t-29 -106l-23 -222q50 43 85 78.5t57 68t32 63.5t10 66q0 42 -15 67t-50 25z" />
    <glyph glyph-name="afii61352" unicode="&#x2116;" horiz-adv-x="1055" 
d="M522 118l62 582h69l-74 -700h-76l-291 582l-61 -582h-68l74 700h76zM867 329q-42 0 -75 13.5t-55.5 37t-34 55t-11.5 66.5q0 41 15.5 78.5t44 66t67.5 45.5t86 17q42 0 75 -13.5t55.5 -37t34.5 -55t12 -66.5q0 -41 -16 -78.5t-44.5 -66t-67.5 -45.5t-86 -17zM873 387
q31 0 57 11.5t45 31.5t29.5 46t10.5 55q0 24 -8 46t-23 38t-36.5 25.5t-48.5 9.5q-31 0 -57 -11.5t-45 -31.5t-29.5 -46t-10.5 -55q0 -49 30 -84t86 -35zM663 236l6 59h387l-6 -59h-387z" />
    <glyph glyph-name="trademark" unicode="&#x2122;" horiz-adv-x="805" 
d="M451 700h79l86 -322l154 322h79l-43 -407h-50l36 341l-162 -341h-46l-90 341l-36 -341h-50zM373 700l-5 -46h-104l-38 -361h-51l38 361h-104l5 46h259z" />
    <glyph glyph-name="uni2126" unicode="&#x2126;" horiz-adv-x="720" 
d="M427 650q-63 0 -113 -22t-85.5 -59.5t-54 -87t-18.5 -104.5q0 -44 12 -83.5t35 -71t57.5 -53.5t78.5 -30l-15 -139h-255l7 62h200l4 38q-47 14 -83 41t-60.5 63t-37.5 79t-13 91q0 67 25 128.5t70.5 108t109.5 74t141 27.5q69 0 122 -22t89 -60t55 -88.5t19 -108.5
q0 -59 -19 -113t-53 -97.5t-81 -75.5t-103 -48l-3 -37h200l-7 -62h-255l15 139q55 10 99 37.5t75 66.5t47.5 87t16.5 99q0 46 -14 86.5t-42 70.5t-69.5 47t-96.5 17z" />
    <glyph glyph-name="estimated" unicode="&#x212e;" horiz-adv-x="519" 
d="M161 227l-18 -170q22 -22 53 -34t71 -12q34 0 64 9t53.5 24t41 35t26.5 42h22q-10 -27 -28.5 -51t-45.5 -42t-61 -28.5t-74 -10.5q-51 0 -88 17t-61 46t-36 67t-12 81q0 53 17.5 99.5t49 80.5t75 53.5t96.5 19.5q44 0 79.5 -13.5t60 -38t38 -58t13.5 -73.5
q0 -16 -1.5 -25t-3.5 -18h-331zM308 432q-37 0 -70.5 -11.5t-59.5 -31.5l-15 -140h243l16 143q-23 19 -51 29.5t-63 10.5z" />
    <glyph glyph-name="arrowleft" unicode="&#x2190;" horiz-adv-x="710" 
d="M42 350l262 216l32 -40l-181 -149h590l-6 -55h-590l151 -148l-42 -40z" />
    <glyph glyph-name="arrowup" unicode="&#x2191;" horiz-adv-x="482" 
d="M314 700l191 -239l-44 -37l-131 166l-62 -590h-55l61 589l-164 -165l-37 37z" />
    <glyph glyph-name="arrowright" unicode="&#x2192;" horiz-adv-x="710" 
d="M742 350l-262 -216l-33 40l182 148h-590l6 55h589l-150 148l42 41z" />
    <glyph glyph-name="arrowdown" unicode="&#x2193;" horiz-adv-x="482" 
d="M241 0l-191 239l45 37l130 -166l62 590h55l-62 -590l166 166l36 -37z" />
    <glyph glyph-name="uni2196" unicode="&#x2196;" horiz-adv-x="555" 
d="M83 597l320 -15l-9 -56l-220 13l373 -417l-43 -39l-373 417l-11 -222l-55 -2z" />
    <glyph glyph-name="uni2197" unicode="&#x2197;" horiz-adv-x="555" 
d="M597 597l-49 -321l-56 2l38 223l-461 -418l-36 39l461 417l-224 -13l4 56z" />
    <glyph glyph-name="uni2198" unicode="&#x2198;" horiz-adv-x="555" 
d="M545 103l-319 15l8 56l221 -13l-374 417l44 39l372 -417l11 222l56 2z" />
    <glyph glyph-name="uni2199" unicode="&#x2199;" horiz-adv-x="555" 
d="M31 103l50 321l55 -2l-37 -223l461 418l35 -39l-460 -417l222 13l-2 -56z" />
    <glyph glyph-name="partialdiff" unicode="&#x2202;" 
d="M322 438q54 0 99.5 -23t71.5 -75l2 15q11 88 6 146t-23 92t-47.5 47.5t-67.5 13.5q-42 0 -75 -14t-56.5 -39t-38 -58.5t-18.5 -72.5h-68q6 51 25.5 95.5t53 77.5t80.5 52.5t106 19.5q51 0 87.5 -16t60 -52t34.5 -93.5t11 -140.5q0 -114 -20 -195.5t-56.5 -133
t-87.5 -75.5t-114 -24q-53 0 -93 15.5t-66.5 42.5t-39.5 63.5t-13 78.5q0 51 18.5 97t51.5 80.5t78.5 55t98.5 20.5zM322 377q-42 0 -75.5 -15t-57.5 -40.5t-37 -59t-13 -71.5q0 -31 9 -57.5t28 -46t47.5 -30.5t66.5 -11q35 0 66.5 11t56.5 36.5t43.5 67.5t28.5 105
q-11 31 -29 52.5t-40 34.5t-46 18.5t-48 5.5z" />
    <glyph glyph-name="uni2206" unicode="&#x2206;" horiz-adv-x="546" 
d="M108 62h344l-117 529zM540 0h-534l315 700h52z" />
    <glyph glyph-name="product" unicode="&#x220f;" horiz-adv-x="625" 
d="M681 732h-55l-104 -989h-69l104 989h-335l-104 -989h-69l104 989h-55l6 62h583z" />
    <glyph glyph-name="summation" unicode="&#x2211;" 
d="M-12 -257l7 64l405 464l-308 464l6 59h519l-6 -62h-432l308 -454l-406 -468h433l-7 -67h-519z" />
    <glyph glyph-name="minus" unicode="&#x2212;" 
d="M110 257l6 58h404l-6 -58h-404z" />
    <glyph glyph-name="radical" unicode="&#x221a;" horiz-adv-x="687" 
d="M27 232h168l86 -356l414 918h71l-471 -1028h-51l-102 407h-121z" />
    <glyph glyph-name="infinity" unicode="&#x221e;" horiz-adv-x="827" 
d="M661 491q42 0 74 -14.5t54.5 -39.5t34 -58t11.5 -70q0 -44 -15.5 -84t-43.5 -70.5t-68 -49t-89 -18.5q-128 0 -183 133q-44 -69 -97 -101t-112 -32q-42 0 -74.5 15t-54.5 40t-33.5 58t-11.5 69q0 42 15 81.5t43 71t67.5 50.5t89.5 19q65 0 110 -34t73 -99q42 66 95 99.5
t115 33.5zM654 431q-48 0 -94.5 -32.5t-82.5 -109.5q20 -78 59.5 -110t87.5 -32q33 0 60.5 13t46.5 34.5t29.5 50t10.5 59.5q0 27 -8 50t-23 40t-36.5 27t-49.5 10zM262 431q-33 0 -60 -13t-46.5 -34.5t-30 -50t-10.5 -58.5q0 -26 8 -49.5t23 -41t37 -27.5t51 -10
q51 0 97 35t78 107q-17 71 -55.5 106.5t-91.5 35.5z" />
    <glyph glyph-name="integral" unicode="&#x222b;" horiz-adv-x="277" 
d="M146 -137q-7 -69 -38.5 -99.5t-79.5 -30.5q-16 0 -34.5 3t-30.5 9l6 57q14 -6 24 -8t19 -2q62 0 70 75l84 797q7 66 36.5 98t79.5 32q13 0 33 -2.5t34 -9.5l-6 -57q-26 11 -45 11q-60 0 -68 -76z" />
    <glyph glyph-name="approxequal" unicode="&#x2248;" 
d="M93 267q26 28 55.5 39t54.5 11q26 0 55 -9.5t58 -22.5q30 -13 56 -24.5t51 -11.5q16 0 32 5.5t31 13.5t28 17.5t22 17.5l-1 -9l1 1l-6 -60q-26 -26 -56 -39.5t-59 -13.5q-26 0 -51.5 10t-57.5 25q-26 12 -53 22.5t-55 10.5q-32 0 -60 -15t-51 -37l1 10l-1 -1z" />
    <glyph glyph-name="notequal" unicode="&#x2260;" 
d="M273 170l-68 -118h-56l69 118h-117l6 59h143l66 109h-197l6 59h223l69 118h55l-68 -118h125l-6 -59h-152l-65 -109h205l-6 -59h-232z" />
    <glyph glyph-name="lessequal" unicode="&#x2264;" 
d="M509 256l-378 149l5 49l409 149l-6 -62l-315 -111l291 -113zM93 48l6 58h394l-6 -58h-394z" />
    <glyph glyph-name="greaterequal" unicode="&#x2265;" 
d="M121 317l315 113l-291 111l6 62l379 -149l-5 -49l-410 -149zM93 48l6 58h394l-6 -58h-394z" />
    <glyph glyph-name="lozenge" unicode="&#x25ca;" horiz-adv-x="465" 
d="M47 396l240 398h60l155 -398l-239 -396h-60zM241 70l193 326q-7 15 -16.5 41t-21.5 57.5t-24.5 65t-24.5 65t-22 57.5t-16 41l-194 -327z" />
    <glyph glyph-name="commaaccent" unicode="&#xf6c3;" horiz-adv-x="219" 
d="M61 42q0 22 15.5 37.5t39.5 15.5q26 0 40.5 -19.5t14.5 -55.5q0 -57 -34 -83.5t-85 -26.5l3 31q25 0 39 8t22 23q5 9 6.5 17.5t1.5 16.5q-9 -7 -22 -7q-18 0 -29.5 12.5t-11.5 30.5z" />
    <glyph glyph-name="asuperior" unicode="&#xf6e9;" horiz-adv-x="395" 
d="M382 565l-26 -250h-53l5 50q-13 -24 -39.5 -40t-60.5 -16q-51 0 -81 34t-30 85q0 29 10.5 55t29.5 45.5t44 31t54 11.5q36 0 58.5 -16.5t30.5 -39.5l5 50h53zM225 354q19 0 36 7.5t29 20.5t19 30t7 36q0 31 -19.5 54.5t-55.5 23.5q-20 0 -37 -8t-29 -21t-19 -30t-7 -35
q0 -32 20.5 -55t55.5 -23z" />
    <glyph glyph-name="bsuperior" unicode="&#xf6ea;" horiz-adv-x="396" 
d="M157 315h-52l40 385h52l-19 -185q14 24 40.5 40t60.5 16q50 0 80.5 -34t30.5 -85q0 -29 -11 -55t-29.5 -45.5t-44 -31t-54.5 -11.5q-35 0 -57.5 16.5t-31.5 39.5zM245 354q41 0 67 28t26 66q0 32 -20 55t-56 23q-41 0 -66.5 -28.5t-25.5 -66.5q0 -32 20 -54.5t55 -22.5z
" />
    <glyph glyph-name="dsuperior" unicode="&#xf6eb;" horiz-adv-x="395" 
d="M308 365q-13 -24 -39.5 -40t-60.5 -16q-51 0 -81 34t-30 85q0 29 10.5 55t29.5 45.5t44 31t54 11.5q36 0 58.5 -16.5t30.5 -39.5l19 185h53l-40 -385h-53zM225 354q19 0 36 7.5t29 20.5t19 30t7 36q0 31 -19.5 54.5t-55.5 23.5q-20 0 -37 -8t-29 -21t-19 -30t-7 -35
q0 -32 20.5 -55t55.5 -23z" />
    <glyph glyph-name="esuperior" unicode="&#xf6ec;" horiz-adv-x="360" 
d="M151 429q-4 -32 11.5 -56.5t56.5 -24.5q28 0 45.5 12.5t25.5 29.5h51q-10 -33 -43 -57t-82 -24q-59 0 -88.5 34.5t-29.5 84.5q0 29 10 55t28.5 45.5t44.5 31t58 11.5q54 0 83.5 -30t29.5 -76q0 -10 -1.5 -18t-3.5 -18h-196zM236 532q-34 0 -55.5 -20.5t-26.5 -49.5h146
q4 30 -13.5 50t-50.5 20z" />
    <glyph glyph-name="isuperior" unicode="&#xf6ed;" horiz-adv-x="209" 
d="M134 654q0 18 13.5 30.5t30.5 12.5q16 0 25.5 -10.5t9.5 -25.5q0 -17 -12.5 -30t-30.5 -13q-17 0 -26.5 11t-9.5 25zM189 565l-26 -250h-52l26 250h52z" />
    <glyph glyph-name="lsuperior" unicode="&#xf6ee;" horiz-adv-x="197" 
d="M145 700h52l-40 -385h-52z" />
    <glyph glyph-name="msuperior" unicode="&#xf6ef;" horiz-adv-x="520" 
d="M434 315l15 143q4 36 -9.5 52t-36.5 16q-30 0 -48 -23.5t-22 -61.5l-13 -126h-51l15 138q5 41 -8 57t-36 16q-29 0 -48 -23t-23 -62l-13 -126h-51l26 250h51l-5 -51q10 23 31.5 40t54.5 17q29 0 48.5 -14.5t22.5 -44.5q10 21 32.5 40t60.5 19q41 0 59.5 -25.5t13.5 -74.5
l-16 -156h-50z" />
    <glyph glyph-name="osuperior" unicode="&#xf6f0;" horiz-adv-x="374" 
d="M220 309q-30 0 -53 9.5t-38.5 25.5t-24 38t-8.5 46q0 28 11 54t31 46t47.5 31.5t60.5 11.5q30 0 52.5 -9.5t38.5 -25.5t24 -38t8 -46q0 -29 -11 -54.5t-30.5 -45.5t-47 -31.5t-60.5 -11.5zM224 354q41 0 66.5 28t25.5 66q0 33 -20 55.5t-55 22.5q-20 0 -37 -7.5
t-29.5 -20.5t-19.5 -30t-7 -36q0 -32 20.5 -55t55.5 -23z" />
    <glyph glyph-name="rsuperior" unicode="&#xf6f1;" horiz-adv-x="267" 
d="M289 517q-13 4 -25 4q-42 0 -66.5 -28t-29.5 -73l-11 -105h-52l26 250h52l-6 -55q14 28 40 43.5t56 15.5q13 0 21 -4z" />
    <glyph glyph-name="ssuperior" unicode="&#xf6f2;" horiz-adv-x="323" 
d="M231 456q40 -11 59 -23.5t19 -41.5q0 -42 -31.5 -62t-79.5 -20q-24 0 -44 5t-34 16.5t-21 28.5t-5 41h52q-3 -30 13.5 -42t42.5 -12q25 0 40.5 10t15.5 29t-17.5 26.5t-54.5 16.5q-15 4 -28.5 8t-24 11t-16.5 18t-6 28q0 38 30.5 58t77.5 20q51 0 76 -22.5t21 -60.5h-52
q2 23 -10.5 35t-36.5 12q-23 0 -38 -10t-15 -28q0 -20 17.5 -26.5t49.5 -14.5z" />
    <glyph glyph-name="tsuperior" unicode="&#xf6f3;" horiz-adv-x="252" 
d="M249 315q-8 -2 -21 -3t-27 -1t-28 2.5t-24.5 11.5t-16.5 26.5t-3 47.5l13 125h-47l4 41h47l10 89h52l-10 -89h69l-4 -41h-69l-12 -115q-4 -36 8 -45.5t31 -9.5q7 0 16 0.5t16 2.5z" />
    <glyph glyph-name="apple" unicode="&#xf8ff;" horiz-adv-x="800" 
d="M473 717q80 0 141 -27.5t102.5 -73t63 -105.5t21.5 -125q0 -77 -29 -150t-81.5 -129t-126 -90t-162.5 -34q-80 0 -141.5 27.5t-103 73t-63 105.5t-21.5 125q0 77 29 149.5t82 129t126.5 90.5t162.5 34zM473 695q-42 0 -79 -8t-67 -21t-59 -32t-55 -44
q-25 -24 -44.5 -52.5t-33.5 -57.5q-17 -35 -25.5 -66.5t-12.5 -63.5q-7 -66 11 -129q8 -32 22 -59.5t33 -50.5q20 -24 43.5 -43t54.5 -33q64 -29 140 -29t145 29q34 14 61 32.5t53 43.5q49 48 79 110q15 31 27 67.5t12 92.5q0 26 -3 51t-9 48q-8 29 -22 57t-34 53
q-40 48 -98 76q-63 29 -139 29zM192 228q12 -8 31 -20t42.5 -23.5t51 -19.5t56.5 -8q42 4 82 8q34 4 70 8t62 7q-18 -23 -41.5 -44.5t-61.5 -39.5q-30 -14 -60 -22t-53 -8q-47 0 -91.5 37.5t-87.5 124.5zM247 259l207 268l-136 -243h178l-2 -25h-247zM248 169q12 -21 29 -36
t36 -24t36.5 -13t31.5 -4q22 0 49 9t51 20t41.5 21t21.5 13q-35 -7 -78.5 -15t-87.5 -8q-15 0 -33.5 1.5t-36 5.5t-33.5 11.5t-27 18.5zM254 496q0 20 14 33.5t32 13.5q17 0 28 -11t11 -28q0 -19 -14 -33t-33 -14q-17 0 -27.5 11.5t-10.5 27.5zM551 496q0 20 14 33.5
t32 13.5q17 0 28 -11t11 -28q0 -19 -14 -33t-33 -14q-17 0 -27.5 11.5t-10.5 27.5zM617 161q4 9 4 18q0 7 -2 13q-2 5 -3 5q-2 2 -1.5 1.5t-1.5 0.5q-3 1 -2.5 1t-1.5 1l-13 5q-7 4 -15 8t-16 11q-11 9 -16 20l-2 11q-2 7 -2.5 8t0.5 6q-1 8 -1.5 15.5t0.5 15.5q2 5 2.5 10
t2.5 9l14 -5q0 -2 -1 -4.5t-1 -5.5l-1 -13q0 -7 -0.5 -14t1.5 -13q1 -2 1.5 -6t2.5 -6q2 -6 7.5 -12t9.5 -8q8 -5 15.5 -8t9.5 -5l14 -6q2 -1 3 -2l3 -3q6 -5 5.5 -5.5t1.5 -3.5q3 -9 3 -19q0 -13 -4 -24zM248 331q-1 -5 -0.5 -10t0.5 -10v-12q0 -8 -2.5 -16t-6.5 -13
q-2 -5 -15 -11q-4 -2 -5 -2q-5 -2 -11 -4.5t-11 -5.5q-4 -1 -10 -5q-2 -1 -3 -2t-4 -3q-4 -7 -6 -13l-4 -17h-16q1 5 1.5 10t2.5 10q4 13 11 20q4 4 6 5t5 3l11 7q4 2 11.5 5t13.5 5l1 1q5 2 10 8q5 5 5 16v12l-1 20zM600 196q1 1 -0.5 -7t-2.5 -8q-3 -1 -10 -1q7 7 13 16z
" />
    <glyph glyph-name="commaturn" horiz-adv-x="219" 
d="M238 661q0 -22 -16.5 -37.5t-40.5 -15.5q-25 0 -39 19t-14 55q0 56 32 83.5t86 27.5l-4 -31q-47 0 -59 -30q-6 -12 -7.5 -20t-1.5 -14q7 6 21 6q19 0 31 -12.5t12 -30.5z" />
    <glyph glyph-name="zero.slash" 
d="M284 -12q-53 0 -94.5 18.5t-68.5 50t-39 73.5t-7 89l28 261q5 47 25.5 89.5t54.5 74t78.5 50t97.5 18.5t94.5 -18.5t68.5 -50t39.5 -74t7.5 -89.5l-28 -261q-5 -47 -26 -89t-54.5 -73.5t-78.5 -50t-98 -18.5zM207 73q16 -11 36 -17t46 -6q38 0 70 13.5t56 36.5t39 53.5
t19 65.5l28 261q3 28 -4 52t-21 43zM143 219q-3 -28 3.5 -52.5t20.5 -44.5l269 504q-17 11 -38.5 17.5t-46.5 6.5q-37 0 -68 -13.5t-55 -36.5t-38.5 -54t-18.5 -66z" />
    <glyph glyph-name="zero.tlfslash" 
d="M103 480q5 47 25.5 89.5t54.5 74t78.5 50t97.5 18.5t94.5 -18.5t68.5 -50t39.5 -74t7.5 -89.5l-28 -261q-5 -47 -26 -89t-54.5 -73.5t-78.5 -50t-98 -18.5t-94.5 18.5t-68.5 50t-39 73.5t-7 89zM501 480q3 28 -4 52t-21 43l-269 -502q16 -11 36 -17t46 -6q38 0 70 13.5
t56 36.5t39 53.5t19 65.5zM143 219q-3 -28 3.5 -52.5t20.5 -44.5l269 504q-17 11 -38.5 17.5t-46.5 6.5q-37 0 -68 -13.5t-55 -36.5t-38.5 -54t-18.5 -66z" />
    <glyph glyph-name="zero.tlf" 
d="M103 480q5 47 25.5 89.5t54.5 74t78.5 50t97.5 18.5t94.5 -18.5t68.5 -50t39.5 -74t7.5 -89.5l-28 -261q-5 -47 -26 -89t-54.5 -73.5t-78.5 -50t-98 -18.5t-94.5 18.5t-68.5 50t-39 73.5t-7 89zM501 480q4 35 -4.5 66t-28 54t-49 36.5t-67.5 13.5t-69.5 -13.5t-55 -36.5
t-38 -54t-18.5 -66l-28 -261q-4 -35 4.5 -65.5t27.5 -53.5t47.5 -36.5t66.5 -13.5t70 13.5t56 36.5t39 53.5t19 65.5z" />
    <glyph glyph-name="one.tlf" 
d="M173 584h51q69 0 104.5 28.5t46.5 87.5h66l-73 -700h-71l55 528h-185z" />
    <glyph glyph-name="two.tlf" 
d="M78 0q9 82 27.5 138t48.5 94.5t71 64t95 48.5q33 13 64.5 28t57 36t41 49.5t15.5 68.5q0 58 -34 89.5t-95 31.5q-72 0 -118 -42t-54 -114h-68q5 48 25.5 88.5t53 69.5t75.5 45t93 16q88 0 139 -47t51 -130q0 -55 -22 -95t-54.5 -68.5t-70 -47t-68.5 -30.5
q-51 -23 -85.5 -45t-56.5 -48t-33 -59.5t-15 -78.5h360l-7 -62h-436v0z" />
    <glyph glyph-name="three.tlf" 
d="M140 208q-4 -36 5.5 -64.5t29 -49t49 -31.5t66.5 -11q39 0 70.5 12t54 33t35 49.5t12.5 61.5q0 54 -35 89.5t-109 35.5h-53l7 61h53q39 0 69 11t50 29.5t30 44t10 54.5q0 57 -35.5 86t-97.5 29q-72 0 -114 -37.5t-49 -100.5h-68q4 45 23.5 82t50.5 63.5t72 41t89 14.5
q43 0 79.5 -12t62.5 -34.5t40.5 -54.5t14.5 -72q0 -66 -38 -113t-101 -62q55 -14 87 -53t32 -101q0 -48 -19.5 -88.5t-53.5 -69.5t-80 -45.5t-98 -16.5q-50 0 -90.5 15t-69 43.5t-42 69t-8.5 91.5h69z" />
    <glyph glyph-name="four.tlf" 
d="M364 240h-266l48 460h68l-41 -398h198l23 221h68l-23 -221h114l-7 -62h-114l-25 -240h-68z" />
    <glyph glyph-name="five.tlf" 
d="M142 700h400l-6 -62h-338l-29 -273q26 41 75 63t102 22q47 0 83.5 -16t62 -43.5t39 -65t13.5 -79.5q0 -52 -19 -98.5t-53.5 -82t-82 -56t-103.5 -20.5q-54 0 -95 18.5t-68.5 50.5t-39.5 74t-7 89h69q-4 -35 4.5 -65.5t27 -53.5t48 -36.5t67.5 -13.5q40 0 73.5 15t58 40.5
t38 59t13.5 70.5q0 31 -10 59t-29 48.5t-47 32.5t-64 12q-48 0 -87.5 -22.5t-65.5 -68.5h-72z" />
    <glyph glyph-name="six.tlf" 
d="M285 -11q-50 0 -89.5 17t-66.5 45.5t-41 67t-14 81.5t13.5 81t39.5 73l252 346h80l-201 -269q13 11 33 16.5t46 5.5q47 0 85 -16.5t65 -45.5t41.5 -67.5t14.5 -81.5q0 -50 -19.5 -96t-54 -81t-81.5 -55.5t-103 -20.5zM291 52q40 0 73.5 15t58 40.5t38 59t13.5 70.5
q0 31 -10 59t-29.5 49t-47 33.5t-63.5 12.5q-40 0 -73.5 -15t-57.5 -40.5t-37.5 -59.5t-13.5 -71q0 -32 10 -59.5t29 -48.5t46.5 -33t63.5 -12z" />
    <glyph glyph-name="seven.tlf" 
d="M590 700l-398 -700h-73l365 638h-323l7 62h422z" />
    <glyph glyph-name="eight.tlf" 
d="M279 -11q-50 0 -89.5 14t-66.5 39t-41.5 58.5t-14.5 72.5q0 32 10 63t28.5 56.5t46.5 44.5t64 27q-50 14 -75 52t-25 89q0 43 17 80.5t48 65.5t74.5 44t96.5 16q48 0 85 -13.5t62.5 -37t39 -55t13.5 -68.5q0 -58 -33.5 -106.5t-101.5 -66.5q58 -14 85.5 -57.5t27.5 -97.5
q0 -44 -18 -84t-50.5 -70t-79 -48t-103.5 -18zM320 388q37 0 67 11t51 30t32.5 44.5t11.5 55.5q0 51 -34.5 85t-100.5 34q-36 0 -66 -11t-51.5 -30.5t-33 -45.5t-11.5 -56q0 -51 34.5 -84t100.5 -33zM284 52q40 0 72.5 12t56 32.5t36.5 48.5t13 60q0 27 -9.5 50t-28.5 40
t-46.5 27t-64.5 10q-41 0 -73.5 -12t-55.5 -32.5t-35.5 -48.5t-12.5 -59q0 -57 39 -92.5t109 -35.5z" />
    <glyph glyph-name="nine.tlf" 
d="M358 711q50 0 89.5 -17t66.5 -45.5t41.5 -66.5t14.5 -80q0 -45 -15 -83.5t-40 -72.5l-252 -346h-78l200 269q-22 -22 -78 -22q-47 0 -85 16.5t-65 45.5t-41.5 67t-14.5 82q0 50 19 96t53.5 81t81.5 55.5t103 20.5zM353 648q-40 0 -73.5 -15t-58 -40.5t-38.5 -59
t-14 -70.5q0 -32 10 -60t29.5 -49t47.5 -33t63 -12q40 0 73.5 15t57.5 40.5t37.5 59.5t13.5 71q0 31 -10 59t-29 49t-46.5 33t-62.5 12z" />
    <glyph glyph-name="csuperior" horiz-adv-x="361" 
d="M302 470q0 23 -14.5 39.5t-47.5 16.5q-23 0 -39.5 -8t-28 -21.5t-17 -30.5t-5.5 -35q0 -32 17.5 -54.5t55.5 -22.5q30 0 47.5 14t25.5 37h53q-10 -39 -43 -67.5t-88 -28.5q-31 0 -53.5 9.5t-37.5 26t-22 38t-7 44.5q0 28 9.5 54t28 46t46 32.5t62.5 12.5q30 0 51 -8.5
t34 -23t19 -33t6 -37.5h-52z" />
    <glyph glyph-name="fsuperior" horiz-adv-x="252" 
d="M286 658q-10 5 -26 5q-17 0 -32 -8t-19 -41l-5 -49h72l-4 -41h-72l-22 -209h-52l22 209h-52l4 41h52l5 46q3 32 13.5 51t24 28.5t28.5 12t27 2.5q16 0 25 -2t15 -5z" />
    <glyph glyph-name="gsuperior" horiz-adv-x="394" 
d="M242 526q-20 0 -37 -8t-29 -21t-19 -30t-7 -36q0 -32 20 -54.5t55 -22.5q20 0 37 7.5t29 20.5t19 30t7 36q0 32 -20 55t-55 23zM355 304q-8 -71 -46 -100.5t-101 -29.5q-38 0 -62.5 9.5t-38.5 25t-19 35.5t-4 41h53q0 -14 3 -26.5t11.5 -22.5t23 -15.5t36.5 -5.5
q37 0 61.5 19.5t29.5 67.5l7 64q-14 -25 -40 -40t-60 -15q-51 0 -81 33t-30 84q0 29 10.5 55t29 45.5t43.5 31t54 11.5q34 0 57.5 -15t32.5 -41l5 50h52z" />
    <glyph glyph-name="ksuperior" horiz-adv-x="330" 
d="M223 440l104 -125h-65l-93 113l-12 -113h-52l40 385h52l-26 -248l117 113h65z" />
    <glyph glyph-name="psuperior" horiz-adv-x="396" 
d="M178 515q14 24 40.5 40t60.5 16q51 0 81 -34t30 -85q0 -29 -10.5 -55t-29.5 -45.5t-44 -31t-54 -11.5q-35 0 -58 16.5t-32 39.5l-19 -185h-52l40 385h52zM262 526q-20 0 -37 -8t-29 -21t-19 -30t-7 -35q0 -32 20 -55t56 -23q20 0 37 8t29 21t19 30t7 35q0 32 -20 55
t-56 23z" />
    <glyph glyph-name="qsuperior" horiz-adv-x="396" 
d="M330 565h53l-40 -385h-53l19 185q-13 -24 -39.5 -40t-60.5 -16q-51 0 -81 34t-30 85q0 29 10.5 55t29.5 45.5t44 31t54 11.5q36 0 58.5 -16.5t30.5 -39.5zM242 526q-20 0 -37 -8t-29 -21t-19 -30t-7 -35q0 -32 20 -55t55 -23q20 0 37 8t29 21t19 30t7 35q0 32 -20 55
t-55 23z" />
    <glyph glyph-name="usuperior" horiz-adv-x="379" 
d="M339 315h-52l5 51q-12 -24 -38 -40.5t-61 -16.5q-23 0 -40.5 7.5t-28.5 21.5t-13.5 34t0.5 47l15 146h52l-14 -134q-4 -36 9.5 -56.5t44.5 -20.5q19 0 33.5 7.5t25 19.5t16 27.5t7.5 30.5l13 126h52z" />
    <glyph glyph-name="vsuperior" horiz-adv-x="336" 
d="M147 565l60 -187l100 187h56l-142 -250h-41l-89 250h56z" />
    <glyph glyph-name="zsuperior" horiz-adv-x="309" 
d="M325 565l-160 -205h137l-5 -45h-221l161 205h-132l4 45h216z" />
    <glyph glyph-name="plusinferior" horiz-adv-x="383" 
d="M152 -156l10 91h-89l5 43h89l9 91h46l-9 -91h89l-5 -43h-89l-10 -91h-46z" />
    <glyph glyph-name="minusinferior" horiz-adv-x="384" 
d="M71 -64l5 43h228l-5 -43h-228z" />
    <glyph glyph-name="equalinferior" horiz-adv-x="384" 
d="M76 -17l5 43h228l-5 -43h-228zM66 -115l5 44h228l-5 -44h-228z" />
    <glyph glyph-name="multiply.case" 
d="M451 451l41 -46l-135 -122l108 -120l-47 -42l-106 120l-135 -122l-41 46l134 122l-107 120l47 42l106 -120z" />
    <glyph glyph-name="Iacute.smcp" horiz-adv-x="268" 
d="M158 560h69l-59 -560h-69zM106 591l-21 48l217 107l20 -48z" />
    <glyph glyph-name="parenleft.smcp" horiz-adv-x="350" 
d="M363 572q-30 0 -55 -10.5t-43.5 -29t-30.5 -43t-15 -51.5l-45 -434q-3 -27 3.5 -51t21.5 -42.5t37.5 -29t52.5 -10.5l-6 -60q-45 0 -79.5 15.5t-57 42t-32.5 61.5t-6 74l46 434q4 39 21.5 74t45.5 61.5t65.5 42t82.5 15.5z" />
    <glyph glyph-name="Ibreve.smcp" horiz-adv-x="268" 
d="M159 560h69l-59 -560h-69zM99 710q5 -32 33 -50t70 -18t74.5 18t42.5 50h57q-7 -28 -24 -50t-41.5 -37.5t-53.5 -24t-60 -8.5t-58.5 8.5t-48 24t-33 38t-14.5 49.5h56z" />
    <glyph glyph-name="uni0438.002" horiz-adv-x="560" 
d="M524 443l-47 -443h-65l10 96q-25 -48 -71 -77.5t-109 -29.5q-43 0 -75 15t-51 41t-24 60t0 78l27 260h66l-25 -241q-3 -33 1 -61t17 -48.5t35.5 -32.5t55.5 -12q38 0 67.5 14.5t50 38.5t33 54t15.5 61l24 227h65z" />
    <glyph glyph-name="Dcroat.smcp" horiz-adv-x="630" 
d="M331 560q64 0 113 -21.5t82 -56.5t50 -81.5t17 -95.5q0 -57 -22.5 -112t-64 -98t-101 -69t-133.5 -26h-172l27 255h-110l6 54h110l26 251h172zM306 255h-112l-20 -195h103q57 0 103 20.5t78 54.5t49.5 77t17.5 88q0 39 -13 75t-38.5 63.5t-63.5 44.5t-87 17h-103
l-20 -191h112z" />
    <glyph glyph-name="Scaron.smcp" horiz-adv-x="535" 
d="M157 175q-6 -62 27.5 -96t95.5 -34q59 0 96 29.5t37 80.5q0 25 -10 42t-25.5 27.5t-35.5 17t-40 12.5q-33 10 -63.5 21t-54 27.5t-37 41t-13.5 61.5q0 38 15 69t41 53t62.5 34t78.5 12q88 0 129.5 -47.5t35.5 -122.5h-68q4 56 -23 84.5t-81 28.5q-55 0 -88 -28t-33 -73
q0 -24 9 -39.5t24 -26.5t35 -18t42 -13q32 -10 62 -21t53.5 -28t37.5 -42t14 -64q0 -40 -16 -72.5t-43.5 -55.5t-65.5 -35.5t-83 -12.5q-94 0 -142.5 51t-40.5 137h68zM218 727l37 41l90 -91l110 91l29 -41l-147 -119z" />
    <glyph glyph-name="Nacute.smcp" horiz-adv-x="612" 
d="M456 107l48 453h67l-59 -560h-72l-226 451l-47 -451h-67l59 560h73zM283 597l-21 48l216 108l21 -48z" />
    <glyph glyph-name="Q.smcp" horiz-adv-x="716" 
d="M680 306q0 -59 -19.5 -110t-54 -90.5t-80.5 -67t-98 -37.5l44 -70q-5 -2 -13.5 -6.5t-18 -9.5t-18.5 -9t-13 -6l-53 87q-63 0 -111.5 22t-81.5 58.5t-50 84.5t-17 100q0 61 23 119t65 103t101 72t131 27q64 0 113.5 -22t83 -58.5t50.5 -85t17 -101.5zM365 49
q54 0 99.5 21.5t77.5 57t50 81t18 94.5q0 40 -13 78t-38.5 66.5t-62.5 46t-86 17.5q-54 0 -99 -21.5t-77 -56.5t-50 -81t-18 -95q0 -41 13 -78.5t38 -66.5t62.5 -46t85.5 -17z" />
    <glyph glyph-name="Eth.smcp" horiz-adv-x="630" 
d="M330 560q64 0 113.5 -21.5t82.5 -56.5t50 -81.5t17 -95.5q0 -57 -22.5 -112t-64.5 -98t-101.5 -69t-133.5 -26h-171l27 253h-88l6 55h88l26 252h171zM286 253h-92l-20 -193h102q57 0 103 20.5t78.5 54.5t49.5 77t17 88q0 39 -13 75t-38.5 63.5t-63 44.5t-87.5 17h-102
l-20 -192h92z" />
    <glyph glyph-name="Tbar.smcp" horiz-adv-x="455" 
d="M410 341h-113l-36 -341h-67l36 341h-109l6 53h109l11 106h-147l6 60h361l-6 -60h-147l-11 -106h113z" />
    <glyph glyph-name="Lcommaaccent.smcp" horiz-adv-x="414" 
d="M159 560h67l-53 -500h188l-6 -60h-255zM170 -61q0 19 13.5 33t34.5 14t33 -16.5t12 -47.5q0 -47 -27 -71t-75 -24l3 27q33 0 47 14.5t14 31.5q0 7 -2 8q-8 -6 -19 -6q-15 0 -24.5 11t-9.5 26z" />
    <glyph glyph-name="Y.smcp" horiz-adv-x="532" 
d="M214 0h-75l135 218l-175 342h79l139 -274l167 274h75z" />
    <glyph glyph-name="Ncaron.smcp" horiz-adv-x="612" 
d="M456 107l48 453h67l-59 -560h-72l-226 451l-47 -451h-67l59 560h73zM253 717l39 41l88 -91l111 91l29 -41l-147 -119z" />
    <glyph glyph-name="Uogonek.smcp" horiz-adv-x="569" 
d="M359 -158q-14 -5 -32.5 -8.5t-38.5 -3.5q-46 0 -67.5 21t-21.5 50q0 25 14.5 45.5t44.5 42.5q-38 4 -67.5 20.5t-49 41.5t-28 57.5t-4.5 68.5l40 383h68l-40 -382q-3 -27 4 -50.5t21.5 -41t37 -28t51.5 -10.5q28 0 52.5 10.5t43 28t30 41t14.5 50.5l40 382h66l-40 -383
q-4 -37 -19.5 -70t-41.5 -58.5t-60.5 -41t-75.5 -18.5q-20 -16 -31.5 -33t-11.5 -37t12.5 -33.5t38.5 -13.5q13 0 29 3.5t28 8.5z" />
    <glyph glyph-name="Rcaron.smcp" horiz-adv-x="562" 
d="M159 560h203q40 0 71.5 -13.5t53.5 -37t33.5 -54.5t11.5 -66q0 -33 -10.5 -64t-30 -56.5t-47 -44.5t-60.5 -29l105 -195h-79l-98 184h-126l-19 -184h-67zM220 502l-28 -260h130q31 0 57.5 11.5t45 31.5t29 45.5t10.5 54.5q0 24 -7.5 45.5t-22 37t-35.5 25t-48 9.5h-131z
M216 717l38 41l89 -90l111 90l28 -41l-146 -118z" />
    <glyph glyph-name="three.denominator" horiz-adv-x="373" 
d="M116 117q-4 -36 15.5 -57t55.5 -21q39 0 61.5 22.5t22.5 54.5q0 27 -17.5 44.5t-52.5 17.5h-33l5 44h33q39 0 58.5 20t19.5 49q0 28 -17 42.5t-47 14.5q-36 0 -55.5 -19t-22.5 -51h-55q5 50 40.5 82t95.5 32q51 0 83.5 -25t32.5 -70q0 -38 -21.5 -63.5t-54.5 -33.5
q29 -8 46 -29.5t17 -56.5q0 -28 -11.5 -50.5t-31 -38t-45.5 -24t-55 -8.5q-62 0 -95 34.5t-27 89.5h55z" />
    <glyph glyph-name="Obreve.smcp" horiz-adv-x="716" 
d="M359 -13q-64 0 -113 22t-82.5 58.5t-50.5 84.5t-17 100q0 61 23 119t65 103t101 72t131 27q64 0 113 -22t82.5 -58.5t50.5 -84.5t17 -100q0 -62 -23 -119.5t-65 -102.5t-101 -72t-131 -27zM365 49q54 0 99.5 21.5t77.5 57t50 81t18 94.5q0 40 -13 78t-38.5 66.5t-62.5 46
t-86 17.5q-54 0 -99 -21.5t-77 -56.5t-50 -81t-18 -95q0 -41 13 -78.5t38 -66.5t62.5 -46t85.5 -17zM322 710q6 -32 33.5 -50.5t69.5 -18.5t74.5 18.5t43.5 50.5h56q-6 -28 -23.5 -50.5t-41.5 -38t-53.5 -24t-60.5 -8.5t-58.5 8.5t-48 24t-33 38t-13.5 50.5h55z" />
    <glyph glyph-name="Lacute.smcp" horiz-adv-x="413" 
d="M360 60l-6 -60h-255l59 560h67l-53 -500h188zM145 597l-20 48l216 108l20 -48z" />
    <glyph glyph-name="two.plf.smcp" horiz-adv-x="514" 
d="M78 0q7 66 22 111.5t39 76.5t57 52t75 39q29 12 55 25t45.5 29t31 37.5t11.5 51.5q0 44 -25 67.5t-71 23.5q-55 0 -90 -32t-41 -88h-68q4 38 20.5 70.5t43 56t62 36.5t78.5 13q72 0 115.5 -37.5t43.5 -106.5q0 -42 -16 -72.5t-41 -52.5t-55.5 -37.5t-58.5 -28.5
q-40 -18 -67 -34t-44 -35.5t-26 -44.5t-13 -62h284l-6 -58h-361v0z" />
    <glyph glyph-name="C.smcp" horiz-adv-x="692" 
d="M644 171q-15 -39 -42 -72.5t-63.5 -58t-82 -39t-96.5 -14.5q-63 0 -112 21.5t-83 57.5t-51.5 84t-17.5 102q0 61 22.5 119t64.5 103t102 72t134 27q57 0 101.5 -16.5t75.5 -44.5t48.5 -65.5t20.5 -79.5h-70q-9 63 -55 103.5t-127 40.5q-57 0 -103.5 -21.5t-78.5 -56.5
t-49.5 -80.5t-17.5 -94.5q0 -43 14 -81t40 -66.5t63.5 -45t85.5 -16.5q69 0 123.5 33t81.5 89h72z" />
    <glyph glyph-name="ampersand.smcp" horiz-adv-x="556" 
d="M342 244h188l-6 -57h-52q-5 -43 -20.5 -79t-42 -62t-63 -40.5t-82.5 -14.5q-38 0 -70 10t-55.5 29.5t-37 47.5t-13.5 63q0 58 34 95.5t89 53.5q-41 11 -63 40.5t-22 74.5q0 38 15.5 68.5t42 51.5t61.5 32.5t75 11.5q42 0 74 -12t52.5 -34t29.5 -51.5t5 -64.5h-67
q5 48 -19.5 77t-81.5 29q-54 0 -87 -28.5t-33 -76.5q0 -40 25 -64.5t79 -24.5h22l-6 -57h-22q-33 0 -58.5 -9t-42.5 -24.5t-25.5 -36.5t-8.5 -44q0 -45 29 -72.5t83 -27.5q64 0 97.5 39.5t40.5 99.5h-70z" />
    <glyph glyph-name="J.smcp" horiz-adv-x="509" 
d="M437 177q-5 -44 -21.5 -79t-43 -59.5t-61.5 -38t-76 -13.5q-42 0 -75 14t-55.5 39t-32.5 60t-5 77h67q-3 -31 3.5 -55t21.5 -40.5t36 -25t46 -8.5q52 0 87 34t42 95l40 383h67z" />
    <glyph glyph-name="Amacron.smcp" horiz-adv-x="529" 
d="M489 0h-73l-23 97h-238l-43 -97h-72l254 560h58zM179 154h202l-68 313zM475 638h-289l6 53h289z" />
    <glyph glyph-name="nine.denominator" horiz-adv-x="370" 
d="M227 391q30 0 52.5 -9.5t38.5 -25.5t24 -38t8 -46q0 -25 -8.5 -46t-22.5 -40l-137 -186h-62l105 140q-7 -7 -16 -8.5t-16 -1.5q-51 0 -83.5 33.5t-32.5 84.5q0 28 11 54t31 46t47.5 31.5t60.5 11.5zM222 345q-20 0 -36.5 -7.5t-28.5 -20.5t-18.5 -30t-6.5 -36
q0 -31 19 -53t54 -22q40 0 65 27.5t25 64.5q0 32 -19 54.5t-54 22.5z" />
    <glyph glyph-name="Aring.smcp" horiz-adv-x="529" 
d="M489 0h-73l-23 97h-238l-43 -97h-72l254 560h58zM179 154h202l-68 313zM346 785q40 0 65.5 -27t25.5 -65q0 -22 -9 -42t-24.5 -35t-35.5 -24t-42 -9q-41 0 -66.5 27t-25.5 65q0 22 9.5 42t25 35t35.5 24t42 9zM342 742q-26 0 -44.5 -18.5t-18.5 -44.5q0 -21 14 -36.5
t37 -15.5q26 0 44.5 18.5t18.5 44.5q0 21 -14 36.5t-37 15.5z" />
    <glyph glyph-name="Idotaccent.smcp" horiz-adv-x="268" 
d="M159 560h68l-59 -560h-68zM152 665q0 23 17 40t40 17q21 0 34 -14t13 -34q0 -23 -17 -39.5t-40 -16.5q-22 0 -34.5 13.5t-12.5 33.5z" />
    <glyph glyph-name="Hcircumflex.smcp" horiz-adv-x="608" 
d="M467 249h-274l-26 -249h-67l59 560h67l-27 -252h274l27 252h68l-59 -560h-68zM384 758l135 -119l-41 -41l-102 90l-119 -89l-34 40z" />
    <glyph glyph-name="three.numerator" horiz-adv-x="373" 
d="M149 432q-4 -36 15.5 -57t55.5 -21q39 0 61.5 22.5t22.5 54.5q0 27 -17.5 44.5t-52.5 17.5h-33l5 44h33q39 0 58.5 20t19.5 49q0 28 -17 42.5t-47 14.5q-36 0 -55.5 -19t-22.5 -51h-55q5 50 40.5 82t95.5 32q51 0 83.5 -25t32.5 -70q0 -38 -21.5 -63.5t-54.5 -33.5
q29 -8 46 -29.5t17 -56.5q0 -28 -11.5 -50.5t-31 -38t-45.5 -24t-55 -8.5q-62 0 -95 34.5t-27 89.5h55z" />
    <glyph glyph-name="uni0437.002" horiz-adv-x="469" 
d="M79 -74q-3 -31 6 -56t26 -43t41.5 -28t53.5 -10q31 0 58.5 11.5t47.5 34t32 54t12 72.5q0 30 -7 56t-21.5 45.5t-37.5 30.5t-54 11h-45l5 49h45q61 0 98 39.5t37 101.5q0 48 -24.5 77t-77.5 29q-55 0 -89 -32.5t-39 -83.5h-64q4 38 21 69t43.5 53.5t61.5 34.5t76 12
q75 0 115.5 -40t40.5 -110q0 -69 -36.5 -113.5t-93.5 -57.5q53 -11 82 -57t29 -115q0 -52 -17 -94t-47 -71.5t-71.5 -45.5t-90.5 -16q-45 0 -80.5 14t-59 39t-34.5 60.5t-6 79.5h64z" />
    <glyph glyph-name="Racute.smcp" horiz-adv-x="562" 
d="M159 560h203q40 0 71.5 -13.5t53.5 -37t33.5 -54.5t11.5 -66q0 -33 -10.5 -64t-30 -56.5t-47 -44.5t-60.5 -29l105 -195h-79l-98 184h-126l-19 -184h-67zM220 502l-28 -260h130q31 0 57.5 11.5t45 31.5t29 45.5t10.5 54.5q0 24 -7.5 45.5t-22 37t-35.5 25t-48 9.5h-131z
M254 597l-20 48l216 108l20 -48z" />
    <glyph glyph-name="Scommaaccent.smcp" horiz-adv-x="535" 
d="M157 175q-6 -62 27.5 -96t95.5 -34q59 0 96 29.5t37 80.5q0 25 -10 42t-25.5 27.5t-35.5 17t-40 12.5q-33 10 -63.5 21t-54 27.5t-37 41t-13.5 61.5q0 38 15 69t41 53t62 34t78 12q87 0 129.5 -47.5t36.5 -122.5h-68q4 56 -23 84.5t-81 28.5q-55 0 -88 -28t-33 -73
q0 -24 9 -39.5t24 -26.5t35 -18t42 -13q32 -10 62 -21t53.5 -28t37.5 -42t14 -64q0 -40 -16 -72.5t-43.5 -55.5t-65.5 -35.5t-83 -12.5q-94 0 -142.5 51t-40.5 137h68zM224 -69q0 19 14 32.5t34 13.5q22 0 34.5 -16.5t12.5 -47.5q0 -47 -27.5 -70.5t-74.5 -23.5l2 27
q34 0 48 13.5t14 30.5q0 7 -3 9q-5 -5 -18 -5q-16 0 -26 10.5t-10 26.5z" />
    <glyph glyph-name="Icircumflex.smcp" horiz-adv-x="268" 
d="M159 560h68l-59 -560h-68zM214 758l135 -119l-40 -41l-103 90l-119 -90l-33 41z" />
    <glyph glyph-name="A.smcp" horiz-adv-x="529" 
d="M489 0h-73l-23 97h-238l-43 -97h-72l254 560h58zM179 154h202l-68 313z" />
    <glyph glyph-name="E.smcp" horiz-adv-x="507" 
d="M220 502l-21 -196h245l-6 -56h-245l-20 -192h245l-6 -58h-312l59 560h312l-6 -58h-245z" />
    <glyph glyph-name="AEacute.smcp" horiz-adv-x="757" 
d="M469 502l-21 -196h244l-6 -56h-244l-20 -192h244l-6 -58h-312l10 98h-191l-57 -98h-74l338 560h345l-6 -58h-244zM364 155l35 334l-199 -334h164zM428 597l-20 48l216 108l20 -48z" />
    <glyph glyph-name="Adieresis.001.smcp" horiz-adv-x="529" 
d="M299 592h-47l81 104h46zM392 592h-46l80 104h46zM489 0h-73l-23 97h-238l-43 -97h-72l254 560h58zM179 154h202l-68 313z" />
    <glyph glyph-name="Abreve.smcp" horiz-adv-x="529" 
d="M489 0h-73l-23 97h-238l-43 -97h-72l254 560h58zM179 154h202l-68 313zM229 710q5 -32 32 -50t69 -18t75 18t44 50h56q-6 -28 -23.5 -50t-41.5 -37.5t-53.5 -24t-60.5 -8.5q-63 0 -106 32.5t-47 87.5h56z" />
    <glyph glyph-name="Udieresis.smcp" horiz-adv-x="569" 
d="M149 560h68l-40 -382q-3 -27 3.5 -50.5t21.5 -41t37 -28t51 -10.5q28 0 53 10.5t43.5 28t30 41t14.5 50.5l40 382h66l-40 -383q-4 -39 -21.5 -73.5t-45 -60.5t-65 -41t-82.5 -15q-44 0 -78.5 15t-57 41t-32.5 60.5t-6 73.5zM395 661q0 23 17 40t40 17q21 0 34.5 -14
t13.5 -34q0 -23 -17.5 -39.5t-40.5 -16.5q-21 0 -34 13.5t-13 33.5zM208 661q0 23 17.5 40t40.5 17q20 0 33.5 -14t13.5 -34q0 -23 -17.5 -39.5t-40.5 -16.5q-20 0 -33.5 13.5t-13.5 33.5z" />
    <glyph glyph-name="six.numerator" horiz-adv-x="370" 
d="M217 309q-30 0 -53 9.5t-38.5 25.5t-24 38t-8.5 46q0 47 30 86l137 186h63l-105 -140q16 9 41 7q51 -3 79 -37t28 -79q0 -28 -11 -53.5t-30.5 -45t-47 -31.5t-60.5 -12zM221 355q40 0 65 28t25 65q0 32 -19 54t-54 22q-20 0 -36.5 -7.5t-28.5 -20.5t-18.5 -29.5
t-6.5 -35.5q0 -31 19 -53.5t54 -22.5z" />
    <glyph glyph-name="Cacute.smcp" horiz-adv-x="692" 
d="M644 171q-15 -39 -42 -72.5t-63.5 -58t-82 -39t-96.5 -14.5q-63 0 -112 21.5t-83 57.5t-51.5 84t-17.5 102q0 61 22.5 119t64.5 103t102 72t134 27q57 0 101.5 -16.5t75.5 -44.5t48.5 -65.5t20.5 -79.5h-70q-9 63 -55 103.5t-127 40.5q-57 0 -103.5 -21.5t-78.5 -56.5
t-49.5 -80.5t-17.5 -94.5q0 -43 14 -81t40 -66.5t63.5 -45t85.5 -16.5q69 0 123.5 33t81.5 89h72zM326 597l-20 48l217 108l20 -48z" />
    <glyph glyph-name="minus.numerator" horiz-adv-x="384" 
d="M125 451l5 43h228l-5 -43h-228z" />
    <glyph glyph-name="Uacute.smcp" horiz-adv-x="569" 
d="M149 560h68l-40 -382q-3 -27 3.5 -50.5t21.5 -41t37 -28t51 -10.5q28 0 53 10.5t43.5 28t30 41t14.5 50.5l40 382h66l-40 -383q-4 -39 -21.5 -73.5t-45 -60.5t-65 -41t-82.5 -15q-44 0 -78.5 15t-57 41t-32.5 60.5t-6 73.5zM249 597l-21 48l217 108l20 -48z" />
    <glyph glyph-name="Aacute.smcp" horiz-adv-x="529" 
d="M489 0h-73l-23 97h-238l-43 -97h-72l254 560h58zM179 154h202l-68 313zM236 590l-20 48l217 107l20 -47z" />
    <glyph glyph-name="Imacron.smcp" horiz-adv-x="268" 
d="M158 560h69l-59 -560h-69zM345 638h-288l6 53h288z" />
    <glyph glyph-name="equal.denominator" horiz-adv-x="384" 
d="M97 183l5 43h228l-5 -43h-228zM87 85l5 44h228l-5 -44h-228z" />
    <glyph glyph-name="F.smcp" horiz-adv-x="503" 
d="M220 501l-23 -211h245l-6 -59h-245l-24 -231h-67l59 560h312l-6 -59h-245z" />
    <glyph glyph-name="one.numerator" horiz-adv-x="253" 
d="M113 634q26 0 43 4t27 12t14.5 20.5t6.5 29.5h50l-40 -385h-56l29 279h-78z" />
    <glyph glyph-name="parenleft.denominator" horiz-adv-x="257" 
d="M257 384q-40 0 -65.5 -26.5t-29.5 -63.5l-30 -285q-4 -37 16 -63.5t60 -26.5l-5 -47q-32 0 -57 11t-41 29.5t-23 43.5t-4 53l30 285q3 28 15.5 53t32.5 43.5t47 29.5t59 11z" />
    <glyph glyph-name="exclamdown.smcp" horiz-adv-x="303" 
d="M159 391h69l-42 -396h-69zM153 509q0 24 17.5 41.5t41.5 17.5q21 0 34.5 -14.5t13.5 -34.5q0 -25 -18 -42t-42 -17q-21 0 -34 14.5t-13 34.5z" />
    <glyph glyph-name="brokenbar.smcp" horiz-adv-x="300" 
d="M128 267l38 364h64l-38 -364h-64zM184 193l-38 -364h-64l38 364h64z" />
    <glyph glyph-name="D.smcp" horiz-adv-x="630" 
d="M331 560q64 0 113 -21.5t82 -56.5t50 -81.5t17 -95.5q0 -57 -22.5 -112t-64 -98t-101 -69t-133.5 -26h-172l59 560h172zM220 500l-47 -440h103q57 0 103 20.5t78.5 54.5t49.5 77t17 88q0 39 -13 75t-38.5 63.5t-63 44.5t-86.5 17h-103z" />
    <glyph glyph-name="Gdotaccent.smcp" horiz-adv-x="735" 
d="M428 264h280l-6 -55h-58q-12 -50 -37 -91t-61.5 -70t-83.5 -45t-103 -16q-66 0 -115.5 21.5t-82 57.5t-49 83.5t-16.5 98.5q0 63 23 121.5t65 103.5t101 72.5t130 27.5q48 0 87 -12.5t68 -34.5t46 -52t21 -64h-71q-9 42 -50.5 72t-107.5 30q-55 0 -100 -21.5t-77 -57.5
t-49.5 -82.5t-17.5 -96.5q0 -41 12.5 -78.5t37.5 -66t63.5 -45.5t89.5 -17q43 0 78 12t61 34t43 51.5t25 64.5h-152zM374 665q0 24 17 40.5t40 16.5q21 0 34.5 -14t13.5 -34q0 -23 -17.5 -39.5t-40.5 -16.5q-21 0 -34 13.5t-13 33.5z" />
    <glyph glyph-name="three.plf.smcp" horiz-adv-x="528" 
d="M151 168q-5 -55 26 -87t87 -32q59 0 94.5 33.5t35.5 84.5q0 42 -27 69t-83 27h-46l6 56h46q62 0 92 30.5t30 75.5q0 43 -26.5 65.5t-73.5 22.5q-55 0 -86.5 -29t-36.5 -77h-68q4 34 19 64t40 51.5t59 34t76 12.5q36 0 66 -9.5t52 -27t34.5 -43t12.5 -58.5
q0 -52 -30.5 -90.5t-81.5 -50.5q43 -11 68.5 -43t25.5 -82q0 -39 -16 -71t-44 -55t-65.5 -35.5t-80.5 -12.5t-77 12.5t-56.5 36t-33 56t-6.5 72.5h68z" />
    <glyph glyph-name="five.smcp" horiz-adv-x="545" 
d="M154 560h333l-6 -57h-270l-22 -206q23 33 60.5 49.5t78.5 16.5q38 0 67.5 -13t49.5 -35.5t30.5 -52.5t10.5 -64q0 -42 -15.5 -79.5t-43.5 -66t-67.5 -45t-86.5 -16.5q-46 0 -80 15.5t-56 41.5t-31.5 60t-5.5 71h68q-6 -55 24 -92t87 -37q30 0 56 11.5t44.5 31t29 45
t10.5 53.5q0 48 -30 81.5t-85 33.5q-36 0 -66 -17t-50 -52h-68z" />
    <glyph glyph-name="Edieresis.001" horiz-adv-x="543" 
d="M322 740h-52l100 130h52zM434 740h-52l100 130h52zM218 638l-27 -259h314l-7 -62h-314l-26 -255h314l-7 -62h-382l74 700h382l-7 -62h-314z" />
    <glyph glyph-name="Aringacute.smcp" horiz-adv-x="529" 
d="M416 0l-23 97h-238l-43 -97h-72l249 551q-8 2 -15 16t-7 30q0 26 19.5 45t45.5 19q23 0 38.5 -16t15.5 -37q0 -20 -11 -37t-21 -20l135 -551h-73zM313 467l-134 -313h202zM236 635l-14 32l207 104l14 -32zM329 631q-13 0 -22.5 -9.5t-9.5 -22.5q0 -11 7 -19t19 -8
q14 0 23 10.5t9 21.5t-7 19t-19 8z" />
    <glyph glyph-name="Gcircumflex.smcp" horiz-adv-x="735" 
d="M428 264h280l-6 -55h-58q-12 -50 -37 -91t-61.5 -70t-83.5 -45t-103 -16q-66 0 -115.5 21.5t-82 57.5t-49 83.5t-16.5 98.5q0 63 23 121.5t65 103.5t101 72.5t130 27.5q48 0 87 -12.5t68 -34.5t46 -52t21 -64h-71q-9 42 -50.5 72t-107.5 30q-55 0 -100 -21.5t-77 -57.5
t-49.5 -82.5t-17.5 -96.5q0 -41 12.5 -78.5t37.5 -66t63.5 -45.5t89.5 -17q43 0 78 12t61 34t43 51.5t25 64.5h-152zM436 759l136 -119l-41 -41l-102 90l-120 -89l-33 40z" />
    <glyph glyph-name="equal.numerator" horiz-adv-x="384" 
d="M130 498l5 43h228l-5 -43h-228zM120 400l5 44h228l-5 -44h-228z" />
    <glyph glyph-name="Egrave.smcp" horiz-adv-x="507" 
d="M220 502l-21 -196h245l-6 -56h-245l-20 -192h245l-6 -58h-312l59 560h312l-6 -58h-245zM222 698l31 48l194 -107l-31 -49z" />
    <glyph glyph-name="Edotaccent.smcp" horiz-adv-x="507" 
d="M220 502l-21 -196h245l-6 -56h-245l-20 -192h245l-6 -58h-312l59 560h312l-6 -58h-245zM272 664q0 23 17 40.5t40 17.5q20 0 33.5 -14t13.5 -34q0 -23 -17.5 -39.5t-40.5 -16.5q-20 0 -33 13t-13 33z" />
    <glyph glyph-name="R.smcp" horiz-adv-x="562" 
d="M159 560h203q40 0 71.5 -13.5t53.5 -37t33.5 -54.5t11.5 -66q0 -33 -10.5 -64t-30 -56.5t-47 -44.5t-60.5 -29l105 -195h-79l-98 184h-126l-19 -184h-67zM322 242q31 0 57.5 11.5t45 31.5t29 45.5t10.5 54.5q0 24 -7.5 45.5t-22 37t-35.5 25t-48 9.5h-131l-28 -260h130z
" />
    <glyph glyph-name="P.smcp" horiz-adv-x="555" 
d="M159 560h203q40 0 71.5 -13.5t53.5 -37t33.5 -54.5t11.5 -66q0 -41 -15.5 -78t-43.5 -65t-66.5 -45t-84.5 -17h-136l-19 -184h-67zM322 242q31 0 57.5 11.5t45 31.5t29 45.5t10.5 54.5q0 24 -7.5 45.5t-22 37t-35.5 25t-48 9.5h-131l-28 -260h130z" />
    <glyph glyph-name="Ecaron.smcp" horiz-adv-x="507" 
d="M220 502l-21 -196h245l-6 -56h-245l-20 -192h245l-6 -58h-312l59 560h312l-6 -58h-245zM195 717l38 41l90 -91l110 91l29 -41l-146 -119z" />
    <glyph glyph-name="Uring.smcp" horiz-adv-x="569" 
d="M149 560h68l-40 -382q-3 -27 3.5 -50.5t21.5 -41t37 -28t51 -10.5q28 0 53 10.5t43.5 28t30 41t14.5 50.5l40 382h66l-40 -383q-4 -39 -21.5 -73.5t-45 -60.5t-65 -41t-82.5 -15q-44 0 -78.5 15t-57 41t-32.5 60.5t-6 73.5zM366 785q41 0 66.5 -27t25.5 -65q0 -22 -9 -42
t-24.5 -35t-36 -24t-42.5 -9q-40 0 -65.5 27t-25.5 65q0 22 9 42t24.5 35t35.5 24t42 9zM362 742q-25 0 -44 -18.5t-19 -43.5q0 -22 14.5 -37.5t37.5 -15.5q25 0 43.5 18.5t18.5 43.5q0 22 -14 37.5t-37 15.5z" />
    <glyph glyph-name="Thorn.smcp" horiz-adv-x="478" 
d="M209 457h70q42 0 73.5 -13.5t53.5 -36t33 -52t11 -62.5q0 -38 -15 -74t-42 -63.5t-65.5 -44t-86.5 -16.5h-70l-10 -95h-62l59 560h62zM177 150h70q32 0 58 11.5t44 30.5t28 44t10 52q0 23 -7.5 44t-22 36.5t-36 25t-48.5 9.5h-70z" />
    <glyph glyph-name="M.smcp" horiz-adv-x="734" 
d="M634 0h-67l45 429l-219 -429h-52l-130 429l-45 -429h-66l59 560h72l146 -467l244 467h72z" />
    <glyph glyph-name="Wcircumflex.smcp" horiz-adv-x="840" 
d="M467 450l-183 -450h-55l-132 560h71l99 -455l185 455h54l89 -455l195 455h71l-250 -560h-55zM500 758l134 -119l-40 -41l-102 90l-120 -89l-33 40z" />
    <glyph glyph-name="questiondown.smcp" horiz-adv-x="475" 
d="M330 405q-3 -30 -10 -52.5t-18 -39.5t-27.5 -30.5t-37.5 -26.5q-14 -8 -29.5 -18.5t-29.5 -24.5t-23 -33.5t-9 -45.5q0 -42 26 -64t71 -22q58 0 91.5 33t39.5 87h67q-5 -40 -21.5 -72.5t-43 -56t-62 -36t-77.5 -12.5q-71 0 -114.5 36.5t-43.5 102.5q0 34 11 59.5t27.5 44
t34.5 31t32 21.5q20 12 34 23t23.5 23.5t14.5 29.5t8 43h66zM364 521q0 -25 -18.5 -42t-42.5 -17q-22 0 -35.5 14.5t-13.5 34.5q0 25 18.5 42.5t42.5 17.5q22 0 35.5 -15t13.5 -35z" />
    <glyph glyph-name="Dcaron.smcp" horiz-adv-x="630" 
d="M331 560q64 0 113 -21.5t82 -56.5t50 -81.5t17 -95.5q0 -57 -22.5 -112t-64 -98t-101 -69t-133.5 -26h-172l59 560h172zM220 500l-47 -440h103q57 0 103 20.5t78.5 54.5t49.5 77t17 88q0 39 -13 75t-38.5 63.5t-63 44.5t-86.5 17h-103zM249 717l39 41l89 -91l111 91
l28 -41l-146 -119z" />
    <glyph glyph-name="two.denominator" horiz-adv-x="363" 
d="M55 0q5 48 16 79.5t27.5 52.5t38.5 34.5t50 26.5q21 9 39 18t30.5 20t20 25t7.5 33q0 29 -16.5 44t-45.5 15q-34 0 -56 -20.5t-27 -57.5h-55q7 56 45.5 89t97.5 33q50 0 81 -25.5t31 -74.5q0 -29 -11 -50t-28 -36.5t-37.5 -26.5t-39.5 -20q-26 -12 -44 -22.5t-29.5 -22.5
t-17.5 -28t-9 -40h192l-5 -46h-255v0z" />
    <glyph glyph-name="Kcommaaccent.smcp" horiz-adv-x="542" 
d="M417 0l-223 259l-27 -259h-67l59 560h67l-27 -260l277 260h84l-298 -280l239 -280h-84zM227 -60q0 19 14 32.5t34 13.5q46 0 46 -64q0 -48 -28 -71t-74 -23l3 27q33 0 47 13.5t14 30.5q0 7 -2 9q-8 -6 -19 -6q-15 0 -25 11t-10 27z" />
    <glyph glyph-name="H.smcp" horiz-adv-x="608" 
d="M467 249h-274l-26 -249h-67l59 560h67l-27 -252h274l27 252h68l-59 -560h-68z" />
    <glyph glyph-name="uni021A.smcp" horiz-adv-x="455" 
d="M247 500h-147l6 60h361l-6 -60h-147l-53 -500h-67zM177 -61q0 19 14.5 33t35.5 14t33 -16.5t12 -47.5q0 -48 -27.5 -71.5t-74.5 -23.5l3 27q32 0 47 13.5t15 30.5q0 5 -1 6.5t-1 3.5q-4 -2 -8.5 -4t-11.5 -2q-15 0 -25.5 10.5t-10.5 26.5z" />
    <glyph glyph-name="Otilde.smcp" horiz-adv-x="716" 
d="M359 -13q-64 0 -113 22t-82.5 58.5t-50.5 84.5t-17 100q0 61 23 119t65 103t101 72t131 27q64 0 113 -22t82.5 -58.5t50.5 -84.5t17 -100q0 -62 -23 -119.5t-65 -102.5t-101 -72t-131 -27zM365 49q54 0 99.5 21.5t77.5 57t50 81t18 94.5q0 40 -13 78t-38.5 66.5t-62.5 46
t-86 17.5q-54 0 -99 -21.5t-77 -56.5t-50 -81t-18 -95q0 -41 13 -78.5t38 -66.5t62.5 -46t85.5 -17zM285 671q38 23 57 27t30 4q9 0 24.5 -3.5t32.5 -7.5t33.5 -7.5t27.5 -3.5q8 0 20 4t42 18l19 -41q-34 -21 -53 -25.5t-28 -4.5q-29 0 -61 10.5t-58 10.5q-12 0 -26.5 -4.5
t-38.5 -17.5z" />
    <glyph glyph-name="braceleft.smcp" horiz-adv-x="382" 
d="M386 631l-6 -52h-37q-32 0 -52.5 -22t-24.5 -56l-21 -198q-2 -22 -11 -37.5t-21 -26t-25.5 -16.5t-23.5 -8q10 -3 22 -8.5t21.5 -16.5t15.5 -28t3 -41l-18 -176q-4 -34 12 -56t48 -22h37l-5 -51h-56q-21 0 -41 7t-35 21.5t-22.5 36t-4.5 50.5l19 180q2 20 -4 34.5
t-16 23.5t-22 13.5t-22 4.5l6 56q10 0 23 4t25 12.5t20.5 21.5t10.5 32l21 202q3 29 15.5 50.5t30.5 36t39.5 22t42.5 7.5h56z" />
    <glyph glyph-name="G.smcp" horiz-adv-x="735" 
d="M428 264h280l-6 -55h-58q-12 -50 -37 -91t-61.5 -70t-83.5 -45t-103 -16q-66 0 -115.5 21.5t-82 57.5t-49 83.5t-16.5 98.5q0 63 23 121.5t65 103.5t101 72.5t130 27.5q48 0 87 -12.5t68 -34.5t46 -52t21 -64h-71q-9 42 -50.5 72t-107.5 30q-55 0 -100 -21.5t-77 -57.5
t-49.5 -82.5t-17.5 -96.5q0 -41 12.5 -78.5t37.5 -66t63.5 -45.5t89.5 -17q43 0 78 12t61 34t43 51.5t25 64.5h-152z" />
    <glyph glyph-name="Ocircumflex.smcp" horiz-adv-x="716" 
d="M359 -13q-64 0 -113 22t-82.5 58.5t-50.5 84.5t-17 100q0 61 23 119t65 103t101 72t131 27q64 0 113 -22t82.5 -58.5t50.5 -84.5t17 -100q0 -62 -23 -119.5t-65 -102.5t-101 -72t-131 -27zM365 49q54 0 99.5 21.5t77.5 57t50 81t18 94.5q0 40 -13 78t-38.5 66.5t-62.5 46
t-86 17.5q-54 0 -99 -21.5t-77 -56.5t-50 -81t-18 -95q0 -41 13 -78.5t38 -66.5t62.5 -46t85.5 -17zM438 758l135 -119l-40 -41l-102 90l-120 -90l-33 41z" />
    <glyph glyph-name="Adieresis.smcp" horiz-adv-x="529" 
d="M489 0h-73l-23 97h-238l-43 -97h-72l254 560h58zM179 154h202l-68 313zM375 661q0 23 17 40t40 17q21 0 34.5 -14t13.5 -34q0 -23 -17.5 -39.5t-40.5 -16.5q-21 0 -34 13.5t-13 33.5zM189 661q0 23 17 40t40 17q20 0 33.5 -14t13.5 -34q0 -23 -17 -39.5t-40 -16.5
q-20 0 -33.5 13.5t-13.5 33.5z" />
    <glyph glyph-name="four.smcp" horiz-adv-x="545" 
d="M334 186h-219l39 374h69l-33 -314h150l18 172h68l-18 -172h87l-6 -60h-87l-20 -186h-68z" />
    <glyph glyph-name="Zcaron.smcp" horiz-adv-x="525" 
d="M221 710l37 41l89 -91l111 91l29 -41l-147 -119zM125 560h417l-377 -501h328l-6 -59h-439l377 501h-306z" />
    <glyph glyph-name="zero.denominator" horiz-adv-x="388" 
d="M86 266q4 26 16.5 49t31.5 40.5t44.5 27.5t55.5 10q31 0 55 -10.5t39.5 -28.5t23 -41.5t4.5 -50.5l-15 -143q-3 -26 -15 -49t-31.5 -40.5t-45.5 -27.5t-56 -10q-31 0 -55 10.5t-40 28.5t-23 41.5t-4 50.5zM301 262q4 34 -15 59t-56 25t-61 -25t-28 -59l-15 -139
q-4 -34 15.5 -59t56.5 -25t60.5 25t27.5 59z" />
    <glyph glyph-name="Aogonek.smcp" horiz-adv-x="529" 
d="M501 -158q-14 -5 -32.5 -8.5t-38.5 -3.5q-46 0 -67 21t-21 50q0 28 18 51t56 48l-23 97h-238l-43 -97h-72l254 560h58l137 -560h-30q-25 -17 -42 -37t-17 -44q0 -20 12.5 -33.5t38.5 -13.5q13 0 28 3.5t28 8.5zM179 154h202l-68 313z" />
    <glyph glyph-name="Ydieresis.smcp" horiz-adv-x="532" 
d="M214 0h-75l135 218l-175 342h79l139 -274l167 274h75zM394 661q0 22 16 39t39 17q20 0 33 -14t13 -33q0 -23 -16.5 -38.5t-39.5 -15.5q-20 0 -32.5 13t-12.5 32zM207 661q0 23 16.5 39.5t39.5 16.5q20 0 32.5 -14t12.5 -33q0 -23 -16 -38.5t-39 -15.5q-20 0 -33 13
t-13 32z" />
    <glyph glyph-name="bracketright.smcp" horiz-adv-x="331" 
d="M46 -184l6 56h102l74 702h-102l6 57h166l-86 -815h-166z" />
    <glyph glyph-name="Rcommaaccent.smcp" horiz-adv-x="562" 
d="M159 560h203q40 0 71.5 -13.5t53.5 -37t33.5 -54.5t11.5 -66q0 -33 -10.5 -64t-30 -56.5t-47 -44.5t-60.5 -29l105 -195h-79l-98 184h-126l-19 -184h-67zM220 502l-28 -260h130q31 0 57.5 11.5t45 31.5t29 45.5t10.5 54.5q0 24 -7.5 45.5t-22 37t-35.5 25t-48 9.5h-131z
M230 -61q0 19 14 33t35 14q46 0 46 -64q0 -48 -27.5 -71.5t-74.5 -23.5l3 27q32 0 46 14t14 31q0 7 -2 9q-6 -6 -18 -6q-15 0 -25.5 10.5t-10.5 26.5z" />
    <glyph glyph-name="ordfeminine.smcp" horiz-adv-x="552" 
d="M490 359l-38 -359h-64l8 75q-20 -37 -59.5 -60.5t-89.5 -23.5q-37 0 -66.5 13.5t-50.5 36.5t-32.5 54t-11.5 66q0 42 15.5 79.5t42.5 65.5t63.5 44.5t78.5 16.5q52 0 85.5 -23.5t46.5 -59.5l8 75h64zM266 48q31 0 57 11.5t45 31t29.5 46t10.5 55.5q0 24 -7.5 45.5
t-22.5 38t-36.5 26t-49.5 9.5q-31 0 -57 -11.5t-44.5 -31.5t-29 -46.5t-10.5 -55.5q0 -50 30 -84t85 -34z" />
    <glyph glyph-name="Ccaron.smcp" horiz-adv-x="692" 
d="M644 171q-15 -39 -42 -72.5t-63.5 -58t-82 -39t-96.5 -14.5q-63 0 -112 21.5t-83 57.5t-51.5 84t-17.5 102q0 61 22.5 119t64.5 103t102 72t134 27q57 0 101.5 -16.5t75.5 -44.5t48.5 -65.5t20.5 -79.5h-70q-9 63 -55 103.5t-127 40.5q-57 0 -103.5 -21.5t-78.5 -56.5
t-49.5 -80.5t-17.5 -94.5q0 -43 14 -81t40 -66.5t63.5 -45t85.5 -16.5q69 0 123.5 33t81.5 89h72zM294 718l37 41l89 -91l110 91l30 -41l-147 -119z" />
    <glyph glyph-name="Idieresis.smcp" horiz-adv-x="268" 
d="M158 560h69l-59 -560h-69zM250 661q0 23 17 40t40 17q20 0 33.5 -14t13.5 -34q0 -23 -17 -39.5t-40 -16.5q-21 0 -34 13.5t-13 33.5zM63 661q0 23 17 40t40 17q20 0 33.5 -14t13.5 -34q0 -23 -17 -39.5t-40 -16.5q-21 0 -34 13.5t-13 33.5z" />
    <glyph glyph-name="Eacute.smcp" horiz-adv-x="507" 
d="M220 502l-21 -196h245l-6 -56h-245l-20 -192h245l-6 -58h-312l59 560h312l-6 -58h-245zM234 597l-20 48l217 108l20 -48z" />
    <glyph glyph-name="eight.numerator" horiz-adv-x="383" 
d="M225 308q-60 0 -92 29.5t-32 73.5q0 37 22.5 66.5t60.5 37.5q-28 8 -42 29t-14 48q0 24 10 44.5t28 36.5t43 25t56 9q57 0 87 -28t30 -69q0 -32 -19 -58.5t-54 -36.5q30 -8 46 -31.5t16 -53.5q0 -25 -10.5 -47t-29.5 -38.5t-46 -26.5t-60 -10zM249 534q36 0 58 20.5
t22 49.5q0 26 -18 42.5t-50 16.5q-35 0 -57 -20.5t-22 -50.5q0 -25 17 -41.5t50 -16.5zM229 352q40 0 64 22t24 54q0 26 -18.5 45t-55.5 19q-40 0 -63.5 -22.5t-23.5 -53.5q0 -28 19 -46t54 -18z" />
    <glyph glyph-name="Udieresis.001" horiz-adv-x="618" 
d="M342 740h-52l101 130h52zM455 740h-52l101 130h52zM146 700h68l-50 -480q-4 -35 4.5 -66.5t28 -55t49.5 -37.5t68 -14t70.5 14t57 37.5t39.5 55t19 66.5l50 480h68l-50 -480q-5 -48 -26 -90.5t-55 -74.5t-79.5 -51t-99.5 -19q-53 0 -94.5 18.5t-69.5 50.5t-40.5 74.5
t-7.5 91.5z" />
    <glyph glyph-name="Tcommaaccent.smcp" horiz-adv-x="455" 
d="M247 500h-147l6 60h361l-6 -60h-147l-53 -500h-67zM177 -61q0 19 14.5 33t35.5 14t33 -16.5t12 -47.5q0 -48 -27.5 -71.5t-74.5 -23.5l3 27q32 0 47 13.5t15 30.5q0 5 -1 6.5t-1 3.5q-4 -2 -8.5 -4t-11.5 -2q-15 0 -25.5 10.5t-10.5 26.5z" />
    <glyph glyph-name="plus.denominator" horiz-adv-x="383" 
d="M173 44l10 91h-89l5 43h89l9 91h46l-9 -91h89l-5 -43h-89l-10 -91h-46z" />
    <glyph glyph-name="six.smcp" horiz-adv-x="544" 
d="M272 -9q-42 0 -74.5 13.5t-55 36.5t-34 53.5t-11.5 65.5q0 37 12 68t32 58l201 274h77l-157 -210q11 9 26 13t32 4q36 0 66 -13t51.5 -36t34 -54.5t12.5 -67.5q0 -41 -15.5 -78t-44 -65.5t-67.5 -45t-85 -16.5zM278 51q30 0 55.5 11.5t44 30.5t29 44.5t10.5 54.5
q0 24 -7.5 45t-22 36.5t-35.5 25t-48 9.5q-30 0 -55.5 -11.5t-44 -31t-29 -45.5t-10.5 -54q0 -24 7.5 -44.5t21.5 -36.5t35.5 -25t48.5 -9z" />
    <glyph glyph-name="Z.smcp" horiz-adv-x="525" 
d="M125 560h417l-377 -501h328l-6 -59h-439l377 501h-306z" />
    <glyph glyph-name="four.denominator" horiz-adv-x="375" 
d="M230 124h-151l27 261h55l-22 -213h96l12 116h56l-12 -116h57l-5 -48h-57l-13 -124h-56z" />
    <glyph glyph-name="uni04F8.001" horiz-adv-x="833" 
 />
    <glyph glyph-name="five.plf.smcp" horiz-adv-x="560" 
d="M165 560h333l-6 -57h-270l-22 -206q20 30 57 48t82 18q38 0 67.5 -13t49.5 -35.5t30.5 -52.5t10.5 -64q0 -42 -15.5 -79.5t-43.5 -66t-67 -45t-86 -16.5q-45 0 -79.5 15.5t-56.5 41t-31.5 59.5t-5.5 72h67q-3 -26 3 -49.5t20.5 -41t36.5 -28t51 -10.5q31 0 57 11.5
t44.5 31t28.5 45.5t10 54q0 48 -29.5 81t-85.5 33q-76 0 -116 -69h-68z" />
    <glyph glyph-name="Ubreve.smcp" horiz-adv-x="569" 
d="M149 560h68l-40 -382q-3 -27 3.5 -50.5t21.5 -41t37 -28t51 -10.5q28 0 53 10.5t43.5 28t30 41t14.5 50.5l40 382h66l-40 -383q-4 -39 -21.5 -73.5t-45 -60.5t-65 -41t-82.5 -15q-44 0 -78.5 15t-57 41t-32.5 60.5t-6 73.5zM250 711q5 -32 32.5 -50.5t69.5 -18.5
t74.5 18.5t43.5 50.5h55q-6 -28 -23.5 -50.5t-41.5 -38t-53 -24t-60 -8.5q-32 0 -59 8.5t-47.5 24t-33 38t-14.5 50.5h57z" />
    <glyph glyph-name="Ccircumflex.smcp" horiz-adv-x="692" 
d="M644 171q-15 -39 -42 -72.5t-63.5 -58t-82 -39t-96.5 -14.5q-63 0 -112 21.5t-83 57.5t-51.5 84t-17.5 102q0 61 22.5 119t64.5 103t102 72t134 27q57 0 101.5 -16.5t75.5 -44.5t48.5 -65.5t20.5 -79.5h-70q-9 63 -55 103.5t-127 40.5q-57 0 -103.5 -21.5t-78.5 -56.5
t-49.5 -80.5t-17.5 -94.5q0 -43 14 -81t40 -66.5t63.5 -45t85.5 -16.5q69 0 123.5 33t81.5 89h72zM433 761l136 -119l-41 -41l-102 90l-119 -89l-33 40z" />
    <glyph glyph-name="Lcaron.smcp" horiz-adv-x="414" 
d="M361 60l-6 -60h-255l58 560h67l-52 -500h188zM75 717l36 41l91 -91l110 91l29 -41l-147 -119z" />
    <glyph glyph-name="parenleft.numerator" horiz-adv-x="257" 
d="M290 699q-40 0 -65.5 -26.5t-29.5 -63.5l-30 -285q-4 -37 16 -63.5t60 -26.5l-5 -47q-32 0 -57 11t-41 29.5t-23 43.5t-4 53l30 285q3 28 15.5 53t32.5 43.5t47 29.5t59 11z" />
    <glyph glyph-name="seven.smcp" horiz-adv-x="545" 
d="M523 560l-317 -560h-73l286 500h-254l6 60h352z" />
    <glyph glyph-name="Emacron.smcp" horiz-adv-x="507" 
d="M220 502l-21 -196h245l-6 -56h-245l-20 -192h245l-6 -58h-312l59 560h312l-6 -58h-245zM464 638h-288l6 53h288z" />
    <glyph glyph-name="IJ.smcp" horiz-adv-x="707" 
d="M635 177q-5 -44 -21.5 -79t-43 -59.5t-61.5 -38t-76 -13.5q-42 0 -75 13.5t-55 38.5t-32.5 60t-5.5 78h67q-3 -31 3.5 -55t21.5 -40.5t36 -25t46 -8.5q52 0 86.5 34t41.5 95l40 383h68zM159 560h68l-59 -560h-68z" />
    <glyph glyph-name="Cdotaccent.smcp" horiz-adv-x="692" 
d="M644 171q-15 -39 -42 -72.5t-63.5 -58t-82 -39t-96.5 -14.5q-63 0 -112 21.5t-83 57.5t-51.5 84t-17.5 102q0 61 22.5 119t64.5 103t102 72t134 27q57 0 101.5 -16.5t75.5 -44.5t48.5 -65.5t20.5 -79.5h-70q-9 63 -55 103.5t-127 40.5q-57 0 -103.5 -21.5t-78.5 -56.5
t-49.5 -80.5t-17.5 -94.5q0 -43 14 -81t40 -66.5t63.5 -45t85.5 -16.5q69 0 123.5 33t81.5 89h72zM371 665q0 23 17.5 40t40.5 17q20 0 33.5 -14t13.5 -34q0 -23 -17.5 -39.5t-40.5 -16.5q-20 0 -33.5 13.5t-13.5 33.5z" />
    <glyph glyph-name="Jcircumflex.smcp" horiz-adv-x="509" 
d="M437 177q-5 -44 -21.5 -79t-43 -59.5t-61.5 -38t-76 -13.5q-42 0 -75 14t-55.5 39t-32.5 60t-5 77h67q-3 -31 3.5 -55t21.5 -40.5t36 -25t46 -8.5q52 0 87 34t42 95l40 383h67zM465 758l134 -119l-40 -41l-102 90l-120 -90l-33 41z" />
    <glyph glyph-name="seven.numerator" horiz-adv-x="326" 
d="M373 700l-215 -385h-59l191 338h-171l4 47h250z" />
    <glyph glyph-name="Uhungarumlaut.smcp" horiz-adv-x="569" 
d="M149 560h68l-40 -382q-3 -27 3.5 -50.5t21.5 -41t37 -28t51 -10.5q28 0 53 10.5t43.5 28t30 41t14.5 50.5l40 382h66l-40 -383q-4 -39 -21.5 -73.5t-45 -60.5t-65 -41t-82.5 -15q-44 0 -78.5 15t-57 41t-32.5 60.5t-6 73.5zM492 753l48 -27l-133 -124l-29 15zM336 753
l48 -27l-133 -124l-29 15z" />
    <glyph glyph-name="Itilde.smcp" horiz-adv-x="268" 
d="M158 560h69l-59 -560h-69zM61 669q38 22 57 26t30 4q9 0 24.5 -3.5t32 -7.5t33 -7.5t27.5 -3.5q10 0 21.5 4t41.5 18l18 -40q-34 -22 -52.5 -26.5t-27.5 -4.5q-15 0 -30.5 3.5l-31 7t-30 7t-27.5 3.5q-11 0 -26.5 -4t-39.5 -17z" />
    <glyph glyph-name="I.smcp" horiz-adv-x="268" 
d="M159 560h68l-59 -560h-68z" />
    <glyph glyph-name="eight.plf.smcp" horiz-adv-x="544" 
d="M273 -9q-42 0 -75 11.5t-55.5 31t-34.5 46.5t-12 59q0 27 8.5 51.5t24 45t38 35t50.5 20.5q-41 11 -61 42t-20 71q0 34 14 64t40 52.5t62 35.5t80 13q40 0 70.5 -11t51.5 -29.5t31.5 -44t10.5 -54.5q0 -48 -27.5 -86.5t-81.5 -52.5q45 -11 69 -46t24 -80q0 -35 -15 -66.5
t-42 -55.5t-65 -38t-85 -14zM306 315q57 0 90.5 31t33.5 76q0 39 -27 65t-77 26q-55 0 -89 -31.5t-34 -77.5q0 -38 26 -63.5t77 -25.5zM277 47q30 0 55 9t43 25t28 37.5t10 45.5q0 42 -29 69.5t-85 27.5q-62 0 -98.5 -33.5t-36.5 -82.5q0 -43 29.5 -70.5t83.5 -27.5z" />
    <glyph glyph-name="five.numerator" horiz-adv-x="394" 
d="M148 700h235l-5 -44h-184l-14 -133q14 22 39 33t54 11q27 0 47 -9t34 -25t21 -36.5t7 -43.5q0 -29 -11 -55t-30.5 -46t-47 -32t-60.5 -12q-32 0 -56 10.5t-39.5 28.5t-23 42t-4.5 50h54q-3 -34 16.5 -59t57.5 -25q19 0 35.5 7.5t28.5 20.5t19 30t7 35q0 31 -19 53t-55 22
q-49 0 -77 -45h-53z" />
    <glyph glyph-name="K.smcp" horiz-adv-x="542" 
d="M194 259l-27 -259h-67l59 560h67l-27 -260l277 260h84l-298 -280l239 -280h-84z" />
    <glyph glyph-name="Ccedilla.smcp" horiz-adv-x="692" 
d="M644 171q-14 -38 -40.5 -69t-62.5 -55t-79.5 -39t-89.5 -19l-11 -1l-4 -37q6 8 17 13.5t25 5.5q26 0 43.5 -18t17.5 -46q0 -32 -23 -57t-61 -25q-28 0 -50 16t-23 51h38q1 -15 9.5 -25t25.5 -10q20 0 33 13.5t13 33.5q0 16 -9.5 26t-28.5 10q-10 0 -19.5 -4t-16.5 -18
h-34l7 73q-54 6 -96 29.5t-70.5 58.5t-43.5 80t-15 94q0 61 22.5 119t64.5 103t102 72t134 27q57 0 101.5 -16.5t75.5 -44.5t48.5 -65.5t20.5 -79.5h-70q-9 63 -55 103.5t-127 40.5q-57 0 -103.5 -21.5t-78.5 -56.5t-49.5 -80.5t-17.5 -94.5q0 -43 14 -81t40 -66.5t63.5 -45
t85.5 -16.5q69 0 123.5 33t81.5 89h72v0z" />
    <glyph glyph-name="Umacron.smcp" horiz-adv-x="569" 
d="M149 560h68l-40 -382q-3 -27 3.5 -50.5t21.5 -41t37 -28t51 -10.5q28 0 53 10.5t43.5 28t30 41t14.5 50.5l40 382h66l-40 -383q-4 -39 -21.5 -73.5t-45 -60.5t-65 -41t-82.5 -15q-44 0 -78.5 15t-57 41t-32.5 60.5t-6 73.5zM497 642h-289l5 53h289z" />
    <glyph glyph-name="Wdieresis.smcp" horiz-adv-x="840" 
d="M467 450l-183 -450h-55l-132 560h71l99 -455l185 455h54l89 -455l195 455h71l-250 -560h-55zM532 667q0 23 16.5 39t39.5 16q21 0 33.5 -13.5t12.5 -32.5q0 -23 -16.5 -39t-39.5 -16q-20 0 -33 13t-13 33zM346 667q0 23 16.5 39t39.5 16q20 0 33 -13.5t13 -33.5
q0 -23 -17 -38.5t-40 -15.5q-20 0 -32.5 13t-12.5 33z" />
    <glyph glyph-name="seven.plf.smcp" horiz-adv-x="458" 
d="M481 560l-317 -560h-73l286 500h-255l6 60h353z" />
    <glyph glyph-name="Odieresis.001" horiz-adv-x="806" 
d="M476 870h52l-101 -130h-52zM539 740h-52l101 130h52zM405 -15q-80 0 -141 27t-102 73t-62.5 105.5t-21.5 124.5q0 76 29 148.5t81 128t125 89.5t162 34q79 0 140.5 -27t102.5 -73t62.5 -105.5t21.5 -124.5q0 -77 -29 -149t-81 -127.5t-125.5 -89.5t-161.5 -34zM410 47
q71 0 130 28t101.5 74.5t66 106.5t23.5 124q0 54 -17 103t-50 87t-82 60.5t-113 22.5q-71 0 -130 -28t-101 -74.5t-65.5 -106.5t-23.5 -124q0 -54 17 -103t50 -87t82 -60.5t112 -22.5z" />
    <glyph glyph-name="Ebreve.smcp" horiz-adv-x="506" 
d="M220 502l-21 -196h244l-6 -56h-244l-20 -192h244l-6 -58h-311l59 560h311l-6 -58h-244zM218 710q5 -32 32.5 -50.5t69.5 -18.5t74.5 18.5t43.5 50.5h57q-6 -28 -23.5 -50.5t-41.5 -38t-53.5 -24t-60.5 -8.5q-63 0 -106.5 32.5t-47.5 88.5h56z" />
    <glyph glyph-name="six.denominator" horiz-adv-x="370" 
d="M184 -6q-30 0 -53 9.5t-38.5 25.5t-24 38t-8.5 46q0 47 30 86l137 186h63l-105 -140q16 9 41 7q51 -3 79 -37t28 -79q0 -28 -11 -53.5t-30.5 -45t-47 -31.5t-60.5 -12zM188 40q40 0 65 28t25 65q0 32 -19 54t-54 22q-20 0 -36.5 -7.5t-28.5 -20.5t-18.5 -29.5t-6.5 -35.5
q0 -31 19 -53.5t54 -22.5z" />
    <glyph glyph-name="Scedilla.smcp" horiz-adv-x="535" 
d="M157 175q-6 -62 27.5 -96t95.5 -34q58 0 95.5 29.5t37.5 80.5q0 25 -9.5 41.5t-25 27.5t-36.5 18.5t-45 13.5q-32 10 -61.5 21t-52 27.5t-36 41t-13.5 60.5q0 38 14.5 69t41 52.5t62 33.5t77.5 12q85 0 129.5 -45.5t37.5 -124.5h-68q4 56 -23 84.5t-81 28.5
q-55 0 -88 -28t-33 -73q0 -24 9 -39.5t24.5 -26.5t36 -18t42.5 -14q32 -10 62 -20.5t53 -27.5t37 -42.5t14 -64.5q0 -40 -15 -71.5t-42 -53.5t-63.5 -34.5t-79.5 -13.5l-5 -49q8 11 19.5 16t25.5 5q26 0 43 -18t17 -46q0 -16 -6.5 -31t-17.5 -27t-27 -19t-35 -7q-14 0 -27 4
t-23.5 13t-16.5 22.5t-6 32.5h38q-1 -14 7.5 -26.5t28.5 -12.5q21 0 34 14t13 33q0 17 -10 27.5t-28 10.5q-10 0 -19.5 -4.5t-18.5 -19.5h-33l8 82q-77 8 -119 57.5t-34 128.5h68z" />
    <glyph glyph-name="Igrave.smcp" horiz-adv-x="268" 
d="M157 560h69l-58 -560h-69zM91 698l31 48l194 -108l-30 -48z" />
    <glyph glyph-name="Odieresis.001.smcp" horiz-adv-x="716" 
d="M378 592h-46l80 104h46zM471 592h-45l79 104h46zM359 -13q-64 0 -113 22t-82.5 58.5t-50.5 84.5t-17 100q0 61 23 119t65 103t101 72t131 27q64 0 113 -22t82.5 -58.5t50.5 -84.5t17 -100q0 -62 -23 -119.5t-65 -102.5t-101 -72t-131 -27zM365 49q54 0 99.5 21.5t77.5 57
t50 81t18 94.5q0 40 -13 78t-38.5 66.5t-62.5 46t-86 17.5q-54 0 -99 -21.5t-77 -56.5t-50 -81t-18 -95q0 -41 13 -78.5t38 -66.5t62.5 -46t85.5 -17z" />
    <glyph glyph-name="Ugrave.smcp" horiz-adv-x="569" 
d="M149 560h68l-40 -382q-3 -27 3.5 -50.5t21.5 -41t37 -28t51 -10.5q28 0 53 10.5t43.5 28t30 41t14.5 50.5l40 382h66l-40 -383q-4 -39 -21.5 -73.5t-45 -60.5t-65 -41t-82.5 -15q-44 0 -78.5 15t-57 41t-32.5 60.5t-6 73.5zM248 705l30 48l195 -108l-30 -48z" />
    <glyph glyph-name="OE.smcp" horiz-adv-x="986" 
d="M699 502l-20 -196h245l-6 -56h-245l-20 -192h245l-7 -58h-312l13 119q-16 -28 -38.5 -52t-51.5 -42t-65 -28t-79 -10q-63 0 -112 21.5t-82.5 58t-50.5 84.5t-17 100q0 61 23 119t65 103t100.5 72t129.5 27q42 0 77 -10t62 -27t45.5 -40t27.5 -50l12 115h312l-6 -58h-245z
M365 48q54 0 99.5 21.5t77.5 57t50 81.5t18 94q0 40 -13 78t-38.5 66.5t-62.5 46t-86 17.5q-54 0 -99 -21.5t-77.5 -57t-50 -81t-17.5 -94.5q0 -41 13 -79t38 -66.5t62.5 -45.5t85.5 -17z" />
    <glyph glyph-name="Gbreve.smcp" horiz-adv-x="735" 
d="M428 264h280l-6 -55h-58q-12 -50 -37 -91t-61.5 -70t-83.5 -45t-103 -16q-66 0 -115.5 21.5t-82 57.5t-49 83.5t-16.5 98.5q0 63 23 121.5t65 103.5t101 72.5t130 27.5q48 0 87 -12.5t68 -34.5t46 -52t21 -64h-71q-9 42 -50.5 72t-107.5 30q-55 0 -100 -21.5t-77 -57.5
t-49.5 -82.5t-17.5 -96.5q0 -41 12.5 -78.5t37.5 -66t63.5 -45.5t89.5 -17q43 0 78 12t61 34t43 51.5t25 64.5h-152zM321 711q6 -33 33 -51t69 -18t74.5 18.5t43.5 50.5h56q-6 -28 -23.5 -50.5t-41.5 -38t-53.5 -24t-60.5 -8.5q-63 0 -106.5 32.5t-47.5 88.5h57z" />
    <glyph glyph-name="minus.denominator" horiz-adv-x="384" 
d="M92 136l5 43h228l-5 -43h-228z" />
    <glyph glyph-name="AE.smcp" horiz-adv-x="757" 
d="M469 502l-21 -196h244l-6 -56h-244l-20 -192h244l-6 -58h-312l10 98h-191l-57 -98h-74l338 560h345l-6 -58h-244zM364 155l35 334l-199 -334h164z" />
    <glyph glyph-name="L.smcp" horiz-adv-x="414" 
d="M361 60l-6 -60h-255l59 560h67l-53 -500h188z" />
    <glyph glyph-name="Udieresis.001.smcp" horiz-adv-x="569" 
d="M311 592h-46l81 104h46zM404 592h-46l81 104h46zM149 560h68l-40 -382q-3 -27 3.5 -50.5t21.5 -41t37 -28t51 -10.5q28 0 53 10.5t43.5 28t30 41t14.5 50.5l40 382h66l-40 -383q-4 -39 -21.5 -73.5t-45 -60.5t-65 -41t-82.5 -15q-44 0 -78.5 15t-57 41t-32.5 60.5
t-6 73.5z" />
    <glyph glyph-name="parenright.smcp" horiz-adv-x="350" 
d="M113 631q45 0 79.5 -15.5t57.5 -42t33 -61.5t6 -74l-46 -434q-4 -39 -21.5 -74t-46 -61.5t-66 -42t-82.5 -15.5l6 60q30 0 54.5 10.5t43.5 29t30.5 42.5t14.5 51l46 434q3 27 -3.5 51.5t-21.5 43t-37.5 29t-52.5 10.5z" />
    <glyph glyph-name="Ecircumflex.smcp" horiz-adv-x="506" 
d="M220 502l-21 -196h244l-6 -56h-244l-20 -192h244l-6 -58h-312l59 560h312l-6 -58h-244zM335 758l136 -119l-40 -41l-103 90l-120 -90l-33 41z" />
    <glyph glyph-name="Agrave.smcp" horiz-adv-x="529" 
d="M489 0h-73l-23 97h-238l-43 -97h-72l254 560h58zM179 154h202l-68 313zM231 705l30 47l194 -108l-30 -47z" />
    </font>
</defs>
</svg>
