<svg xmlns="http://www.w3.org/2000/svg">
<defs>
<font id="991d872b1ad88214f05cfda6e9e3bb07" horiz-adv-x='1024' >
  <font-face 
    font-family="GTWalsheimBold"
    font-weight="700"
    font-stretch="normal"
    units-per-em="1000"
    panose-1="2 0 5 3 4 0 0 2 0 3"
    ascent="750"
    descent="-250"
    x-height="482"
    cap-height="700"
    bbox="-150 -321 1242 1002"
    underline-thickness="50"
    underline-position="-50"
    unicode-range="U+0020-FB04"
  />
<missing-glyph horiz-adv-x="800" 
d="M400 717q84 0 151.5 -30.5t114 -81.5t71.5 -117.5t25 -137.5t-25 -137.5t-71.5 -117.5t-114 -81.5t-151.5 -30.5t-151.5 30.5t-114 81.5t-71.5 117.5t-25 137.5t25 137.5t71.5 117.5t114 81.5t151.5 30.5zM400 695q-76 0 -143 -29q-60 -27 -106 -76q-45 -50 -67 -110
q-24 -63 -24 -130q0 -68 24 -129q22 -62 67 -110q46 -50 106 -76q67 -29 143 -29t142 29q60 26 106 76q45 48 67 110q24 61 24 129q0 67 -24 130q-22 60 -67 110q-46 49 -106 76q-66 29 -142 29zM201 500q0 18 12.5 30.5t29.5 12.5q18 0 30.5 -12.5t12.5 -30.5
q0 -17 -12.5 -30t-30.5 -13q-17 0 -29.5 13t-12.5 30zM498 500q0 18 12.5 30.5t29.5 12.5q18 0 30.5 -12.5t12.5 -30.5q0 -17 -12.5 -30t-30.5 -13q-17 0 -29.5 13t-12.5 30zM219 259l179 268l-110 -243h178v-25h-247zM132 207q0 5 0.5 10t1.5 10q2 5 3.5 10t5.5 10q2 2 9 8
l11 7q5 3 11.5 5.5t12.5 4.5l1 1q4 1 9 8q4 6 4 10q0 5 -0.5 9t-1.5 9l-3 20l17 2q0 -5 0.5 -10t1.5 -10t1.5 -10t0.5 -10q0 -10 -7 -20q-7 -9 -14 -13q-1 0 -2 -0.5t-2 -0.5q-5 -2 -10.5 -4.5t-10.5 -5.5q-4 -1 -10 -5q-4 -4 -6 -5q-3 -5 -5 -13q-1 -5 -1.5 -9t-0.5 -8h-16
zM600 161q2 5 2 9.5v8.5q-2 9 -4 13q-1 3 -3 5q-1 0 -3 2q-2 0 -4 2l-14 5q-8 4 -16.5 8t-16.5 11q-10 7 -18 20l-4 11q-1 4 -2 7t-1 7q-2 8 -3 15.5t-1 15.5q1 5 1 10t2 9l15 -5q0 -2 -0.5 -4.5t-0.5 -5.5v-13q1 -7 1.5 -14t2.5 -13q2 -4 2.5 -7t2.5 -5q3 -6 8 -10.5
t11 -9.5q6 -4 13 -7t13 -6l15 -6q3 -1 7 -5q6 -4 7 -9q5 -9 6 -19v-12t-2 -12zM168 228q25 -15 47 -28t44 -22.5t45.5 -15t51.5 -5.5q21 0 49 1.5t58.5 5t60 11t52.5 19.5q1 0 3 2q-13 -28 -42 -54t-65 -45q-57 -31 -106 -31t-97.5 37.5t-100.5 124.5zM230 169

<glyph glyph-name="IJ" unicode="IJ" horiz-adv-x="881" 
d="M67 700h164v-700h-164v700zM822 241q0 -125 -68 -191.5t-189 -66.5q-63 0 -111 20t-80 55t-48 82t-16 102h162q0 -52 23 -86t70 -34t71 31.5t24 87.5v459h162v-459z" />
    <glyph glyph-name="ij" unicode="ij" horiz-adv-x="561" 
d="M321 642q0 41 28 69t70 28q21 0 39 -7.5t31.5 -20.5t21 -31t7.5 -38t-7.5 -37.5t-21 -31t-31.5 -21t-39 -7.5t-38.5 7.5t-31 21t-21 31t-7.5 37.5zM43 642q0 41 28 69t70 28q21 0 39 -7.5t31.5 -20.5t21 -31t7.5 -38t-7.5 -37.5t-21 -31t-31.5 -21t-39 -7.5t-38.5 7.5
t-31 21t-21 31t-7.5 37.5zM218 482v-482h-153v482h153zM496 -75q0 -47 -10.5 -77.5t-28 -47.5t-41 -23.5t-49.5 -6.5q-29 0 -59 3.5t-44 8.5v114q14 -4 22 -5t17 -1q20 0 30 11t10 37v544h153v-557z" />
    <glyph glyph-name="uniFB00" unicode="ff" horiz-adv-x="761" 
d="M748 588q-12 3 -22.5 4.5t-24.5 1.5q-12 0 -24 -1.5t-21 -8t-14.5 -18.5t-5.5 -33v-51h112v-114h-112v-368h-153v368h-86v114h86v42q0 66 17.5 103t44.5 56t59 23.5t61 4.5q28 0 49 -4t34 -9v-110zM368 588q-12 3 -22.5 4.5t-24.5 1.5q-13 0 -25 -1.5t-21 -8t-14.5 -18.5
t-5.5 -33v-51h113v-114h-112v-368h-153v368h-87v114h87v42q0 66 17.5 103t44.5 56t59 23.5t61 4.5q27 0 48 -4t35 -9v-110z" />
    <glyph glyph-name="fi" unicode="fi" horiz-adv-x="698" 
d="M443 641q0 40 27.5 67.5t67.5 27.5q41 0 68.5 -27.5t27.5 -67.5q0 -20 -7.5 -37t-20.5 -29.5t-30.5 -20t-37.5 -7.5t-37.5 7.5t-30 20t-20 29.5t-7.5 37zM367 588q-12 3 -22.5 4.5t-24.5 1.5q-12 0 -24 -1.5t-21 -8t-14.5 -18.5t-5.5 -33v-51h112v-114h-112v-368h-153
v368h-86v114h86v42q0 66 17.5 103t44.5 56t59 23.5t61 4.5q28 0 49 -4t34 -9v-110zM462 482h153v-482h-153v482z" />
    <glyph glyph-name="fl" unicode="fl" horiz-adv-x="662" 
d="M444 700h153v-700h-153v700zM367 588q-12 3 -22.5 4.5t-24.5 1.5q-12 0 -24 -1.5t-21 -8t-14.5 -18.5t-5.5 -33v-51h112v-114h-112v-368h-153v368h-86v114h86v42q0 66 17.5 103t44.5 56t59 23.5t61 4.5q28 0 49 -4t34 -9v-110z" />
    <glyph glyph-name="uniFB03" unicode="ffi" horiz-adv-x="1080" 
d="M822 642q0 41 28 69t70 28t70 -28t28 -69q0 -20 -7.5 -37.5t-21 -31t-31 -21t-38.5 -7.5t-38.5 7.5t-31 21t-21 31t-7.5 37.5zM748 588q-12 3 -22.5 4.5t-24.5 1.5q-12 0 -24 -1.5t-21 -8t-14.5 -18.5t-5.5 -33v-51h112v-114h-112v-368h-153v368h-86v114h86v42
q0 66 17.5 103t44.5 56t59 23.5t61 4.5q28 0 49 -4t34 -9v-110zM368 588q-12 3 -22.5 4.5t-24.5 1.5q-13 0 -25 -1.5t-21 -8t-14.5 -18.5t-5.5 -33v-51h113v-114h-112v-368h-153v368h-87v114h87v42q0 66 17.5 103t44.5 56t59 23.5t61 4.5q27 0 48 -4t35 -9v-110zM844 482
h153v-482h-153v482z" />
    <glyph glyph-name="uniFB04" unicode="ffl" horiz-adv-x="1041" 
d="M826 700h153v-700h-153v700zM748 588q-12 3 -22.5 4.5t-24.5 1.5q-12 0 -24 -1.5t-21 -8t-14.5 -18.5t-5.5 -33v-51h112v-114h-112v-368h-153v368h-86v114h86v42q0 66 17.5 103t44.5 56t59 23.5t61 4.5q28 0 49 -4t34 -9v-110zM368 588q-12 3 -22.5 4.5t-24.5 1.5
q-13 0 -25 -1.5t-21 -8t-14.5 -18.5t-5.5 -33v-51h113v-114h-112v-368h-153v368h-87v114h87v42q0 66 17.5 103t44.5 56t59 23.5t61 4.5q27 0 48 -4t35 -9v-110z" />
    <glyph glyph-name=".notdef" horiz-adv-x="800" 
d="M400 717q84 0 151.5 -30.5t114 -81.5t71.5 -117.5t25 -137.5t-25 -137.5t-71.5 -117.5t-114 -81.5t-151.5 -30.5t-151.5 30.5t-114 81.5t-71.5 117.5t-25 137.5t25 137.5t71.5 117.5t114 81.5t151.5 30.5zM400 695q-76 0 -143 -29q-60 -27 -106 -76q-45 -50 -67 -110
q-24 -63 -24 -130q0 -68 24 -129q22 -62 67 -110q46 -50 106 -76q67 -29 143 -29t142 29q60 26 106 76q45 48 67 110q24 61 24 129q0 67 -24 130q-22 60 -67 110q-46 49 -106 76q-66 29 -142 29zM201 500q0 18 12.5 30.5t29.5 12.5q18 0 30.5 -12.5t12.5 -30.5
q0 -17 -12.5 -30t-30.5 -13q-17 0 -29.5 13t-12.5 30zM498 500q0 18 12.5 30.5t29.5 12.5q18 0 30.5 -12.5t12.5 -30.5q0 -17 -12.5 -30t-30.5 -13q-17 0 -29.5 13t-12.5 30zM219 259l179 268l-110 -243h178v-25h-247zM132 207q0 5 0.5 10t1.5 10q2 5 3.5 10t5.5 10q2 2 9 8
l11 7q5 3 11.5 5.5t12.5 4.5l1 1q4 1 9 8q4 6 4 10q0 5 -0.5 9t-1.5 9l-3 20l17 2q0 -5 0.5 -10t1.5 -10t1.5 -10t0.5 -10q0 -10 -7 -20q-7 -9 -14 -13q-1 0 -2 -0.5t-2 -0.5q-5 -2 -10.5 -4.5t-10.5 -5.5q-4 -1 -10 -5q-4 -4 -6 -5q-3 -5 -5 -13q-1 -5 -1.5 -9t-0.5 -8h-16
zM600 161q2 5 2 9.5v8.5q-2 9 -4 13q-1 3 -3 5q-1 0 -3 2q-2 0 -4 2l-14 5q-8 4 -16.5 8t-16.5 11q-10 7 -18 20l-4 11q-1 4 -2 7t-1 7q-2 8 -3 15.5t-1 15.5q1 5 1 10t2 9l15 -5q0 -2 -0.5 -4.5t-0.5 -5.5v-13q1 -7 1.5 -14t2.5 -13q2 -4 2.5 -7t2.5 -5q3 -6 8 -10.5
t11 -9.5q6 -4 13 -7t13 -6l15 -6q3 -1 7 -5q6 -4 7 -9q5 -9 6 -19v-12t-2 -12zM168 228q25 -15 47 -28t44 -22.5t45.5 -15t51.5 -5.5q21 0 49 1.5t58.5 5t60 11t52.5 19.5q1 0 3 2q-13 -28 -42 -54t-65 -45q-57 -31 -106 -31t-97.5 37.5t-100.5 124.5zM230 169
q15 -22 34 -37t38.5 -24t36.5 -12.5t27 -3.5q25 0 52 9t50 20t39 21t20 13q-43 -8 -81 -15.5t-88 -7.5q-13 0 -30.5 1.5t-35.5 6t-34.5 11.5t-27.5 18z" />
    <glyph glyph-name=".null" horiz-adv-x="0" 
 />
    <glyph glyph-name="nonmarkingreturn" horiz-adv-x="250" 
 />
    <glyph glyph-name="space" unicode=" " horiz-adv-x="243" 
 />
    <glyph glyph-name="exclam" unicode="!" horiz-adv-x="338" 
d="M87 700h164v-458h-164v458zM65 87q0 21 8 39.5t22 32.5t32.5 22t40.5 8t41 -8t33.5 -22t22.5 -32.5t8 -39.5t-8 -39.5t-22.5 -33t-33.5 -22.5t-41 -8t-40.5 8t-32.5 22.5t-22 33t-8 39.5z" />
    <glyph glyph-name="quotedbl" unicode="&#x22;" horiz-adv-x="418" 
d="M240 586v125h129v-125l-33 -154h-63zM49 586v125h128v-125l-32 -154h-64z" />
    <glyph glyph-name="numbersign" unicode="#" horiz-adv-x="590" 
d="M239 288h103l17 124h-103zM326 180h-102l-26 -180h-111l25 180h-86v108h101l17 124h-88v108h103l25 180h112l-25 -180h103l25 180h111l-25 -180h80v-108h-95l-17 -124h82v-108h-97l-25 -180h-111z" />
    <glyph glyph-name="dollar" unicode="$" horiz-adv-x="606" 
d="M373 715q52 -6 91 -26.5t64.5 -50t38 -66.5t12.5 -77h-162q0 47 -22.5 74t-64.5 27q-35 0 -60 -18t-25 -54q0 -35 27.5 -55.5t72.5 -36.5q43 -15 87 -32.5t79 -43t57.5 -62t22.5 -88.5q0 -48 -16 -87t-44.5 -67t-68.5 -45t-89 -22v-107h-89v107q-48 6 -88.5 25
t-69.5 50.5t-45.5 74.5t-16.5 97h162q0 -57 31 -89t81 -32q39 0 65.5 22.5t26.5 59.5q0 21 -8.5 35.5t-23 25.5t-34.5 19.5t-43 17.5q-48 18 -91.5 36t-75.5 43.5t-51 61.5t-19 89q0 42 16 76t43 58.5t63.5 39.5t77.5 20v107h89v-107z" />
    <glyph glyph-name="percent" unicode="%" horiz-adv-x="955" 
d="M618 754l106 -53l-400 -754l-105 53zM227 306q-36 0 -65 11t-49 30t-30.5 44.5t-10.5 53.5v125q0 28 10.5 53.5t30.5 44.5t49 30t65 11t64.5 -11t48.5 -30t31 -44.5t11 -53.5v-125q0 -28 -11 -53.5t-31 -44.5t-48.5 -30t-64.5 -11zM275 570q0 21 -13 36.5t-35 15.5
t-35 -15.5t-13 -36.5v-125q0 -21 13 -36.5t35 -15.5t35 15.5t13 36.5v125zM882 130q0 -28 -11 -53.5t-31 -44.5t-48.5 -30t-64.5 -11t-65 11t-49 30t-30.5 44.5t-10.5 53.5v125q0 28 10.5 53.5t30.5 44.5t49 30t65 11t64.5 -11t48.5 -30t31 -44.5t11 -53.5v-125zM679 130
q0 -21 13 -36.5t35 -15.5t35 15.5t13 36.5v125q0 21 -13 36.5t-35 15.5t-35 -15.5t-13 -36.5v-125z" />
    <glyph glyph-name="ampersand" unicode="&#x26;" horiz-adv-x="633" 
d="M346 357h265v-126h-46q-1 -55 -19 -100.5t-52.5 -77.5t-83.5 -50t-112 -18q-48 0 -94 14t-82.5 41t-59 67.5t-22.5 93.5q0 31 9 56.5t25 45.5t36.5 35t44.5 26q-43 19 -73.5 56t-30.5 99q0 49 20 86t54 61.5t77.5 36.5t91.5 12q65 0 112 -18.5t77 -49t44.5 -71
t14.5 -85.5h-162q0 46 -19 74t-69 28q-35 0 -58 -19t-23 -59q0 -18 5 -34t16.5 -27.5t30.5 -18t48 -6.5v-125q-60 0 -84.5 -27t-24.5 -72q0 -17 7 -33.5t19.5 -29t31.5 -20t43 -7.5q41 0 71.5 30t31.5 86h-60v126z" />
    <glyph glyph-name="quotesingle" unicode="'" horiz-adv-x="224" 
d="M48 586v125h128v-125l-32 -154h-64z" />
    <glyph glyph-name="parenleft" unicode="(" horiz-adv-x="399" 
d="M362 637q-30 0 -54 -11t-40.5 -30t-25.5 -44t-9 -53v-454q0 -28 9 -53t25.5 -44t40.5 -30t54 -11v-138q-66 0 -119 22t-90 59.5t-57 88t-20 106.5v454q0 56 20 106.5t57 88t90 59.5t119 22v-138z" />
    <glyph glyph-name="parenright" unicode=")" horiz-adv-x="399" 
d="M36 775q66 0 119.5 -22t90.5 -59.5t57 -88t20 -106.5v-454q0 -56 -20 -106.5t-57 -88t-90.5 -59.5t-119.5 -22v138q30 0 54.5 11t41 30t25.5 44t9 53v454q0 28 -9 53t-25.5 44t-41 30t-54.5 11v138z" />
    <glyph glyph-name="asterisk" unicode="*" horiz-adv-x="466" 
d="M78 392l96 118l-134 35l28 83l131 -53l-11 142h91l-11 -142l130 53l28 -83l-134 -35l96 -118l-75 -53l-80 131l-80 -131z" />
    <glyph glyph-name="plus" unicode="+" 
d="M241 71v152h-148v123h148v152h131v-152h148v-123h-148v-152h-131z" />
    <glyph glyph-name="comma" unicode="," horiz-adv-x="309" 
d="M46 90q0 21 8 39.5t21.5 32t31.5 21.5t39 8q51 0 82 -35.5t31 -92.5t-14 -96.5t-41 -64.5t-65.5 -36t-87.5 -11v62q32 0 54 7.5t37 18.5q14 12 21 26.5t9 29.5q-2 -2 -10 -5t-16 -3q-46 0 -73 29t-27 70z" />
    <glyph glyph-name="hyphen" unicode="-" horiz-adv-x="317" 
d="M285 236h-253v122h253v-122z" />
    <glyph glyph-name="period" unicode="." horiz-adv-x="302" 
d="M50 91q0 21 8 39t21.5 31.5t32 21.5t39.5 8t39.5 -8t32 -21.5t21.5 -31.5t8 -39t-8 -39t-21.5 -31.5t-32 -21.5t-39.5 -8t-39.5 8t-32 21.5t-21.5 31.5t-8 39z" />
    <glyph glyph-name="slash" unicode="/" horiz-adv-x="491" 
d="M359 797l124 -53l-351 -816l-124 53z" />
    <glyph glyph-name="zero" unicode="0" horiz-adv-x="616" 
d="M41 465q0 51 18.5 96t53 79.5t84 54.5t110.5 20t110.5 -20t84.5 -54.5t54 -79.5t19 -96v-230q0 -51 -19 -96t-54 -79.5t-84.5 -54.5t-110.5 -20t-110.5 20t-84 54.5t-53 79.5t-18.5 96v230zM413 465q0 23 -7.5 43.5t-21 36t-33.5 24.5t-44 9t-43.5 -9t-33 -24.5
t-20.5 -36t-7 -43.5v-230q0 -23 7 -43.5t20.5 -36t33 -24.5t43.5 -9t44 9t33.5 24.5t21 36t7.5 43.5v230z" />
    <glyph glyph-name="one" unicode="1" horiz-adv-x="405" 
d="M29 577q51 0 83.5 7.5t50.5 22.5t25 38t7 55h143v-700h-165v463h-144v114z" />
    <glyph glyph-name="two" unicode="2" horiz-adv-x="577" 
d="M45 0q0 85 13.5 143t38.5 98t58.5 68t74.5 53q31 18 57.5 34.5t46.5 33.5t31.5 37.5t11.5 46.5q0 42 -23 60.5t-57 18.5q-38 0 -63.5 -23.5t-25.5 -78.5h-161q0 48 16.5 89t48.5 71t78 47t106 17q48 0 91.5 -12.5t76.5 -38t52.5 -66t19.5 -95.5q0 -44 -19 -80t-46.5 -64
t-59.5 -49.5t-58 -36.5q-36 -24 -59.5 -41.5t-37.5 -32.5t-19.5 -31t-5.5 -37h300v-131h-486v0z" />
    <glyph glyph-name="three" unicode="3" horiz-adv-x="601" 
d="M194 235q0 -57 29 -88.5t76 -31.5q45 0 69 28t24 64q0 44 -23 70.5t-80 26.5h-63v125h63q54 0 73.5 24t19.5 62q0 40 -22.5 59t-57.5 19q-52 0 -70.5 -28t-18.5 -74h-162q0 45 14.5 85.5t44.5 71t76.5 49t111.5 18.5q48 0 92.5 -12t78 -36.5t53.5 -61.5t20 -86
q0 -59 -30.5 -100t-72.5 -55q24 -9 44.5 -24t36 -36t24.5 -48.5t9 -60.5q0 -50 -20.5 -89t-55.5 -66t-80.5 -41t-95.5 -14q-65 0 -115 18t-84.5 51t-52 79t-17.5 102h162z" />
    <glyph glyph-name="four" unicode="4" horiz-adv-x="611" 
d="M337 193h-280v507h162v-370h118v193h161v-193h85v-137h-85v-193h-161v193z" />
    <glyph glyph-name="five" unicode="5" horiz-adv-x="635" 
d="M69 700h473v-126h-324v-156q10 16 26 28t35.5 20t40 12t40.5 4q58 0 101 -20.5t71.5 -54.5t42.5 -77.5t14 -89.5q0 -52 -18.5 -98.5t-53 -81t-84.5 -55t-113 -20.5q-62 0 -111.5 20.5t-84 55t-53 80.5t-18.5 97h157q0 -49 29.5 -84t80.5 -35q26 0 46.5 9.5t35 26
t22.5 38.5t8 47q0 24 -7.5 45.5t-22 38t-35 26t-46.5 9.5q-36 0 -60.5 -16t-40.5 -48h-151v405z" />
    <glyph glyph-name="six" unicode="6" horiz-adv-x="600" 
d="M298 -14q-62 0 -111.5 20.5t-84 55t-53 80.5t-18.5 98q0 40 11.5 76.5t31.5 68.5l202 315h182l-140 -210q21 -3 42 -11q48 -6 86 -27t65 -53.5t41 -73t14 -85.5q0 -52 -18.5 -98t-53 -80.5t-84 -55t-112.5 -20.5zM298 121q25 0 46 9.5t35.5 25.5t22.5 38t8 46
q0 25 -8 46.5t-22.5 37.5t-35.5 25.5t-46 9.5q-51 0 -80.5 -34.5t-29.5 -84.5q0 -49 29.5 -84t80.5 -35z" />
    <glyph glyph-name="seven" unicode="7" horiz-adv-x="531" 
d="M538 700l-298 -700h-173l243 564h-275v136h503z" />
    <glyph glyph-name="eight" unicode="8" horiz-adv-x="616" 
d="M309 -15q-63 0 -112 17t-82.5 46t-51.5 68.5t-18 83.5q0 28 8.5 54.5t23.5 49t35.5 38.5t45.5 23q-45 17 -70 59t-25 90q0 41 16.5 77.5t48 64t77 43.5t104.5 16q58 0 103.5 -16t77 -43.5t48 -64t16.5 -77.5q0 -48 -25 -90t-70 -59q25 -8 45.5 -24.5t35.5 -38.5t23 -48.5
t8 -54.5q0 -43 -17.5 -81.5t-51 -68t-82 -47t-111.5 -17.5zM309 419q43 0 67 26t24 61t-24 61t-67 26q-45 0 -69 -26t-24 -61t24 -61t69 -26zM309 107q25 0 44.5 8t33 21.5t21 30.5t7.5 36t-7 36.5t-20.5 31t-33.5 21.5t-45 8q-52 0 -79.5 -29t-27.5 -68q0 -19 7.5 -36.5
t21 -30.5t33.5 -21t45 -8z" />
    <glyph glyph-name="nine" unicode="9" horiz-adv-x="600" 
d="M142 0l140 209q-58 3 -104 23.5t-78 54t-49 78t-17 95.5q0 52 18 98t52.5 80.5t84.5 55t113 20.5q62 0 111.5 -20.5t84 -55t53 -80.5t18.5 -98q0 -41 -11.5 -77.5t-31.5 -67.5l-202 -315h-182zM302 579q-26 0 -46.5 -9.5t-35 -25.5t-22.5 -38t-8 -46q0 -25 8 -46.5
t22.5 -37.5t35 -25.5t46.5 -9.5q51 0 80.5 34.5t29.5 84.5q0 49 -29.5 84t-80.5 35z" />
    <glyph glyph-name="colon" unicode=":" horiz-adv-x="303" 
d="M50 412q0 21 8 39t21.5 31.5t32 21.5t39.5 8t39.5 -8t32 -21.5t21.5 -31.5t8 -39t-8 -39t-21.5 -31.5t-32 -21.5t-39.5 -8t-39.5 8t-32 21.5t-21.5 31.5t-8 39zM50 91q0 21 8 39t21.5 31.5t32 21.5t39.5 8t40 -8t32.5 -21.5t21.5 -31.5t8 -39t-8 -39t-21.5 -31.5
t-32.5 -21.5t-40 -8t-39.5 8t-32 21.5t-21.5 31.5t-8 39z" />
    <glyph glyph-name="semicolon" unicode=";" horiz-adv-x="309" 
d="M50 412q0 21 8 39t21.5 31.5t32 21.5t39.5 8t39.5 -8t32 -21.5t21.5 -31.5t8 -39t-8 -39t-21.5 -31.5t-32 -21.5t-39.5 -8t-39.5 8t-32 21.5t-21.5 31.5t-8 39zM50 90q0 21 7.5 39.5t21 32t31.5 21.5t39 8q51 0 82.5 -35.5t31.5 -92.5t-14 -96.5t-41 -64.5t-65.5 -36
t-87.5 -11v62q32 0 54 7.5t37 18.5q14 12 21 26.5t9 29.5q-2 -2 -10 -5t-17 -3q-46 0 -72.5 29t-26.5 70z" />
    <glyph glyph-name="less" unicode="&#x3c;" 
d="M41 224v120l525 177v-138l-324 -99l324 -99v-139z" />
    <glyph glyph-name="equal" unicode="=" 
d="M93 313v122h427v-122h-427zM93 132v122h427v-122h-427z" />
    <glyph glyph-name="greater" unicode="&#x3e;" 
d="M48 46v139l323 99l-323 99v138l524 -177v-120z" />
    <glyph glyph-name="question" unicode="?" horiz-adv-x="542" 
d="M176 218q0 32 4 58t13.5 48t26.5 41t44 37q14 10 29 21t27.5 25t20.5 31t8 38q0 39 -24 57.5t-60 18.5q-35 0 -60.5 -23.5t-25.5 -78.5h-160q0 48 16 89t47.5 71t77.5 47t105 17q48 0 92 -12.5t77 -37.5t53 -62t20 -86q0 -38 -11.5 -66.5t-28.5 -49.5t-35.5 -35.5
t-31.5 -25.5q-19 -15 -31 -27t-19.5 -25t-10.5 -29.5t-3 -40.5h-160zM152 87q0 21 8 39.5t22 32.5t33 22t41 8t41 -8t33 -22t22 -32.5t8 -39.5t-8 -39.5t-22 -33t-33 -22.5t-41 -8t-41 8t-33 22.5t-22 33t-8 39.5z" />
    <glyph glyph-name="at" unicode="@" horiz-adv-x="871" 
d="M470 -194q-111 0 -195 35t-140.5 93t-85.5 133.5t-29 156.5q0 97 35 174.5t94.5 132t138 83.5t165.5 29q90 0 166.5 -25t131.5 -72t86 -114.5t31 -152.5q0 -80 -14.5 -136t-40.5 -91t-62.5 -51t-80.5 -16q-58 0 -95.5 29.5t-52.5 73.5q-7 -13 -19.5 -25t-28.5 -21
t-34.5 -14.5t-37.5 -5.5q-43 0 -78.5 15.5t-61.5 43t-40.5 64.5t-14.5 79q0 43 15 80t41 64.5t61.5 43t77.5 15.5q19 0 37.5 -5t34.5 -14t28.5 -21t19.5 -25v56h116v-236q0 -51 12.5 -73t39.5 -22q13 0 24.5 9t20 31t13.5 59.5t5 95.5q0 60 -22 107.5t-61.5 80.5t-95 51
t-121.5 18t-123.5 -21t-101 -61.5t-68.5 -99t-25 -133.5q0 -60 20.5 -116.5t62 -101t104.5 -71t148 -26.5q39 0 93.5 9.5t107.5 37.5l43 -89q-32 -18 -65 -30t-65 -18.5t-61 -9.5t-53 -3zM424 121q22 0 40.5 8t31.5 22.5t20 33t7 39.5q0 43 -27 73.5t-72 30.5
q-43 0 -69 -30.5t-26 -73.5q0 -42 26 -72.5t69 -30.5z" />
    <glyph glyph-name="A" unicode="A" horiz-adv-x="660" 
d="M329 500l-86 -288h170zM480 0l-27 85h-249l-27 -85h-173l250 700h149l253 -700h-176z" />
    <glyph glyph-name="B" unicode="B" horiz-adv-x="633" 
d="M63 700h290q72 0 116.5 -19.5t69 -48t33 -61.5t8.5 -60q0 -33 -11 -59.5t-29 -46.5t-39.5 -32.5t-42.5 -17.5q17 0 39 -10.5t42 -30t33.5 -49.5t13.5 -69q0 -27 -9 -61t-34 -64t-70 -50.5t-117 -20.5h-293v700zM321 415q30 0 48.5 8t29.5 20.5t15 27.5t4 28q0 12 -3.5 26
t-14 26.5t-29.5 21t-50 8.5h-97v-166h97zM224 296v-172h101q30 0 48.5 8t29.5 20.5t15 27.5t4 30q0 12 -4 27t-14.5 28t-29.5 22t-48 9h-102z" />
    <glyph glyph-name="C" unicode="C" horiz-adv-x="788" 
d="M757 251q-10 -56 -38.5 -105t-73.5 -85.5t-105 -57.5t-132 -21q-89 0 -158.5 30t-118 80.5t-74 117.5t-25.5 141q0 72 25 138t72.5 117t115.5 81.5t154 30.5q81 0 144.5 -23t108 -62t70.5 -92t34 -113h-169q-6 31 -20.5 57t-37 45.5t-53 30.5t-67.5 11q-51 0 -90.5 -18.5
t-66.5 -49t-41 -70.5t-14 -83q0 -46 14.5 -86.5t43 -71t69 -48t93.5 -17.5q30 0 57 9.5t49.5 26t38.5 39t23 48.5h172z" />
    <glyph glyph-name="D" unicode="D" horiz-adv-x="720" 
d="M324 700q87 0 154.5 -29.5t114 -78.5t71 -112t24.5 -130t-24 -130t-70.5 -112t-114.5 -78.5t-155 -29.5h-257v700h257zM229 560v-420h87q49 0 87.5 17.5t65 47t40.5 67t14 78.5q0 40 -14 78t-40.5 67.5t-65 47t-87.5 17.5h-87z" />
    <glyph glyph-name="E" unicode="E" horiz-adv-x="555" 
d="M229 570v-159h265v-127h-265v-154h265v-130h-427v700h427v-130h-265z" />
    <glyph glyph-name="F" unicode="F" horiz-adv-x="550" 
d="M229 564v-189h265v-133h-265v-242h-162v700h427v-136h-265z" />
    <glyph glyph-name="G" unicode="G" horiz-adv-x="835" 
d="M455 370h363v-121h-72q-11 -60 -38 -109t-71 -84t-103.5 -54.5t-134.5 -19.5q-88 0 -156.5 30t-115 80.5t-71 117t-24.5 140.5q0 72 25 138.5t72.5 117.5t115.5 81.5t154 30.5q69 0 126.5 -19.5t99.5 -53t67 -78t30 -94.5h-173q-4 21 -16 40t-31.5 33.5t-45.5 23t-58 8.5
q-50 0 -87 -19t-62.5 -51t-38 -73.5t-12.5 -85.5q0 -47 13 -88.5t39.5 -73t67 -50t94.5 -18.5q37 0 66 10.5t50 28.5t34 41.5t17 49.5h-124v121z" />
    <glyph glyph-name="H" unicode="H" horiz-adv-x="699" 
d="M471 278h-242v-278h-162v700h162v-283h242v283h161v-700h-161v278z" />
    <glyph glyph-name="I" unicode="I" horiz-adv-x="298" 
d="M67 700h164v-700h-164v700z" />
    <glyph glyph-name="J" unicode="J" horiz-adv-x="583" 
d="M523 241q0 -125 -67.5 -191.5t-188.5 -66.5q-63 0 -111 20t-80 55t-48 82t-16 102h162q0 -52 23 -86t70 -34t71 31.5t24 87.5v459h161v-459z" />
    <glyph glyph-name="K" unicode="K" horiz-adv-x="659" 
d="M229 296v-296h-162v700h162v-297l226 297h195l-277 -350l277 -350h-195z" />
    <glyph glyph-name="L" unicode="L" horiz-adv-x="453" 
d="M428 140v-140h-361v700h162v-560h199z" />
    <glyph glyph-name="M" unicode="M" horiz-adv-x="877" 
d="M810 0h-158v434l-151 -434h-120l-156 434v-434h-158v700h187l187 -487l185 487h184v-700z" />
    <glyph glyph-name="N" unicode="N" horiz-adv-x="717" 
d="M489 244v456h161v-700h-169l-252 450v-450h-162v700h169z" />
    <glyph glyph-name="O" unicode="O" horiz-adv-x="805" 
d="M403 -18q-87 0 -156 30.5t-117 81.5t-73 117.5t-25 138.5t25 138.5t73 117.5t117 81.5t156 30.5t155.5 -30.5t116.5 -81.5t73 -117.5t25 -138.5t-25 -138.5t-73 -117.5t-116.5 -81.5t-155.5 -30.5zM403 128q48 0 86 18.5t64.5 49.5t40.5 71t14 83t-14 83t-40.5 71
t-64.5 49.5t-86 18.5t-86 -18.5t-64.5 -49.5t-40.5 -71t-14 -83t14 -83t40.5 -71t64.5 -49.5t86 -18.5z" />
    <glyph glyph-name="P" unicode="P" horiz-adv-x="635" 
d="M67 700h293q58 0 105 -20.5t80.5 -55t51.5 -80.5t18 -97t-18 -97t-51.5 -80.5t-80.5 -55t-105 -20.5h-131v-194h-162v700zM340 326q25 0 46 10t35.5 26.5t22.5 38.5t8 46t-8 46t-22.5 38.5t-35.5 26.5t-46 10h-111v-242h111z" />
    <glyph glyph-name="Q" unicode="Q" horiz-adv-x="805" 
d="M773 350q0 -53 -14 -102.5t-40 -93t-64 -78t-87 -55.5l60 -81l-142 -72l-84 114q-87 0 -156 30.5t-116.5 81.5t-72.5 117.5t-25 138.5t25 138.5t73 117.5t117 81.5t156 30.5t155.5 -30.5t116.5 -81.5t73 -117.5t25 -138.5zM403 128q48 0 86 18.5t64.5 49.5t40.5 71t14 83
t-14 83t-40.5 71t-64.5 49.5t-86 18.5t-86 -18.5t-64.5 -49.5t-40.5 -71t-14 -83t14 -83t40.5 -71t64.5 -49.5t86 -18.5z" />
    <glyph glyph-name="R" unicode="R" horiz-adv-x="654" 
d="M340 326q25 0 46 10t35.5 26.5t22.5 38.5t8 46t-8 46t-22.5 38.5t-35.5 26.5t-46 10h-111v-242h111zM67 700h294q58 0 105 -20.5t80.5 -55t51.5 -80.5t18 -97q0 -74 -36.5 -134.5t-102.5 -91.5l140 -221h-188l-124 194h-76v-194h-162v700z" />
    <glyph glyph-name="S" unicode="S" horiz-adv-x="606" 
d="M200 232q0 -57 31 -89t81 -32q39 0 65.5 22.5t26.5 59.5q0 21 -8.5 35.5t-23 25.5t-34.5 19.5t-43 17.5q-48 18 -91.5 36t-75.5 43.5t-51 61.5t-19 89q0 48 20.5 85t54.5 62t78.5 37.5t92.5 12.5q62 0 109 -18t78 -49t46.5 -71t15.5 -85h-162q0 47 -22.5 74t-64.5 27
q-35 0 -60 -18t-25 -54q0 -35 27.5 -55.5t72.5 -36.5q43 -15 87 -32.5t79 -43t57.5 -62t22.5 -88.5q0 -54 -19.5 -96t-54.5 -70.5t-83 -43t-106 -14.5q-56 0 -104.5 16.5t-84 48.5t-55.5 78.5t-20 106.5h162z" />
    <glyph glyph-name="T" unicode="T" horiz-adv-x="509" 
d="M173 560h-158v140h479v-140h-159v-560h-162v560z" />
    <glyph glyph-name="U" unicode="U" horiz-adv-x="657" 
d="M56 700h162v-460q0 -24 8 -45.5t22.5 -37.5t34.5 -25.5t45 -9.5t45.5 9.5t35 25.5t22.5 37.5t8 45.5v460h162v-461q0 -54 -19 -101t-54.5 -81.5t-86 -54.5t-113.5 -20t-113 20t-85.5 54.5t-54.5 81.5t-19 101v461z" />
    <glyph glyph-name="V" unicode="V" horiz-adv-x="644" 
d="M395 0h-149l-250 700h173l152 -494l151 494h176z" />
    <glyph glyph-name="W" unicode="W" horiz-adv-x="1035" 
d="M518 440l-139 -440h-133l-247 700h171l143 -459l142 459h125l143 -459l142 459h171l-247 -700h-132z" />
    <glyph glyph-name="X" unicode="X" horiz-adv-x="609" 
d="M426 700h179l-208 -350l208 -350h-179l-122 225l-122 -225h-178l208 350l-208 350h178l122 -226z" />
    <glyph glyph-name="Y" unicode="Y" horiz-adv-x="647" 
d="M302 0h-179l129 263l-248 437h189l149 -275l128 275h179z" />
    <glyph glyph-name="Z" unicode="Z" horiz-adv-x="632" 
d="M45 700h572l-343 -564h332v-136h-589l342 564h-314v136z" />
    <glyph glyph-name="bracketleft" unicode="[" horiz-adv-x="385" 
d="M67 -223v998h258v-133h-105v-733h105v-132h-258z" />
    <glyph glyph-name="backslash" unicode="\" horiz-adv-x="491" 
d="M483 -19l-124 -53l-351 816l124 53z" />
    <glyph glyph-name="bracketright" unicode="]" horiz-adv-x="385" 
d="M60 -223v132h105v732h-105v134h258v-998h-258z" />
    <glyph glyph-name="asciicircum" unicode="^" horiz-adv-x="636" 
d="M445 300l-127 271l-130 -271h-146l232 450h87l233 -450h-149z" />
    <glyph glyph-name="underscore" unicode="_" horiz-adv-x="583" 
d="M22 -132v92h540v-92h-540z" />
    <glyph glyph-name="grave" unicode="`" horiz-adv-x="513" 
d="M83 631l48 106l276 -128l-48 -106z" />
    <glyph glyph-name="a" unicode="a" horiz-adv-x="635" 
d="M302 118q26 0 47 10t36 26.5t23.5 39t8.5 47.5t-8.5 47t-23.5 39t-36 27t-47 10t-47 -10t-36 -27t-23.5 -39t-8.5 -47t8.5 -47.5t23.5 -39t36 -26.5t47 -10zM570 482v-482h-153v68q-9 -17 -24 -31.5t-34.5 -25t-42.5 -17t-46 -6.5q-52 0 -95.5 19.5t-74.5 53t-48 80
t-17 100.5t17 100.5t48 80t74.5 53t95.5 19.5q23 0 46 -6.5t42.5 -17.5t34.5 -26t24 -31v69h153z" />
    <glyph glyph-name="b" unicode="b" horiz-adv-x="637" 
d="M218 0h-153v700h153v-287q9 16 24 31t35 26t42.5 17.5t46.5 6.5q52 0 95.5 -19.5t74.5 -53t48 -80t17 -100.5t-17 -100.5t-48 -80t-74.5 -53t-95.5 -19.5q-24 0 -46.5 6.5t-42.5 17t-35 25t-24 31.5v-68zM334 118q25 0 46 10t36 26.5t23.5 39t8.5 47.5t-8.5 47t-23.5 39
t-36 27t-46 10q-26 0 -47.5 -10t-36.5 -27t-23.5 -39t-8.5 -47t8.5 -47.5t23.5 -39t36.5 -26.5t47.5 -10z" />
    <glyph glyph-name="c" unicode="c" horiz-adv-x="575" 
d="M388 293q-5 32 -26.5 52t-68.5 20q-27 0 -47.5 -10t-33.5 -27t-19.5 -39.5t-6.5 -47.5t6.5 -47.5t20 -39.5t35 -27t51.5 -10q40 0 60 16.5t30 47.5h153q-6 -41 -24 -76.5t-49 -61.5t-75.5 -41t-101.5 -15q-63 0 -111.5 21t-81.5 56t-49.5 81t-16.5 96t16.5 96t49.5 81
t81.5 56t111.5 21q61 0 106 -17t75.5 -45t47 -64.5t20.5 -75.5h-153z" />
    <glyph glyph-name="d" unicode="d" horiz-adv-x="635" 
d="M302 118q26 0 47 10t36 26.5t23.5 39t8.5 47.5t-8.5 47t-23.5 39t-36 27t-47 10t-47 -10t-36 -27t-23.5 -39t-8.5 -47t8.5 -47.5t23.5 -39t36 -26.5t47 -10zM417 68q-9 -17 -24 -31.5t-34.5 -25t-42.5 -17t-46 -6.5q-52 0 -95.5 19.5t-74.5 53t-48 80t-17 100.5t17 100.5
t48 80t74.5 53t95.5 19.5q23 0 46 -6.5t42.5 -17.5t34.5 -26t24 -31v287h153v-700h-153v68z" />
    <glyph glyph-name="e" unicode="e" horiz-adv-x="577" 
d="M186 204q1 -22 6.5 -41.5t18 -34t32.5 -23t50 -8.5q40 0 60.5 16t28.5 39h150q-5 -34 -23.5 -64t-49 -52.5t-72 -35.5t-93.5 -13q-63 0 -111.5 18.5t-81.5 52.5t-50 80.5t-17 102.5q0 53 16.5 99t49 80.5t80 54.5t110.5 20q57 0 102.5 -18t78 -48t50 -70t17.5 -84
q0 -15 -0.5 -32t-4.5 -39h-347zM289 393q-45 0 -74 -26t-29 -75h202q0 47 -27.5 74t-71.5 27z" />
    <glyph glyph-name="f" unicode="f" horiz-adv-x="380" 
d="M368 588q-12 3 -22.5 4.5t-24.5 1.5q-13 0 -25 -1.5t-21 -8t-14.5 -18.5t-5.5 -33v-51h113v-114h-112v-368h-153v368h-87v114h87v42q0 66 17.5 103t44.5 56t59 23.5t61 4.5q27 0 48 -4t35 -9v-110z" />
    <glyph glyph-name="g" unicode="g" horiz-adv-x="633" 
d="M302 364q-26 0 -47 -10t-36 -27t-23 -39t-8 -47t8 -47.5t23 -39t36 -26.5t47 -10t47.5 10t36.5 26.5t23.5 39t8.5 47.5t-8.5 47t-23.5 39t-36.5 27t-47.5 10zM571 3q0 -66 -19 -109.5t-57 -72.5q-34 -26 -81 -39t-114 -13q-68 0 -113.5 15t-75.5 41q-32 27 -50 62.5
t-20 75.5h153q3 -31 29.5 -56t76.5 -25q54 0 86 26t32 83v81q-20 -33 -60 -54t-87 -21q-52 0 -95.5 18t-74.5 50.5t-48.5 77t-17.5 98.5t16.5 100.5t47.5 80t74 53t96 19.5q46 0 87.5 -21.5t61.5 -59.5v69h153v-479z" />
    <glyph glyph-name="h" unicode="h" horiz-adv-x="597" 
d="M65 700h148v-288q20 38 60 60t96 22q47 0 79 -14.5t52 -40.5q23 -28 31 -65t8 -89v-285h-148v247q0 52 -18.5 84.5t-66.5 32.5q-47 0 -70 -33t-23 -89v-242h-148v700z" />
    <glyph glyph-name="i" unicode="i" horiz-adv-x="283" 
d="M43 642q0 41 28 69t70 28q21 0 39 -7.5t31.5 -20.5t21 -31t7.5 -38t-7.5 -37.5t-21 -31t-31.5 -21t-39 -7.5t-38.5 7.5t-31 21t-21 31t-7.5 37.5zM65 482h153v-482h-153v482z" />
    <glyph glyph-name="j" unicode="j" horiz-adv-x="283" 
d="M43 642q0 41 28 69t70 28q21 0 39 -7.5t31.5 -20.5t21 -31t7.5 -38t-7.5 -37.5t-21 -31t-31.5 -21t-39 -7.5t-38.5 7.5t-31 21t-21 31t-7.5 37.5zM218 -75q0 -47 -11 -77.5t-29.5 -47.5t-43 -23.5t-52.5 -6.5q-27 0 -54.5 3.5t-41.5 8.5v117q14 -2 22 -2.5t17 -0.5
q40 0 40 49v537h153v-557z" />
    <glyph glyph-name="k" unicode="k" horiz-adv-x="554" 
d="M361 241l187 -241h-182l-148 202v-202h-153v700h153v-422l149 204h182z" />
    <glyph glyph-name="l" unicode="l" horiz-adv-x="283" 
d="M65 700h153v-700h-153v700z" />
    <glyph glyph-name="m" unicode="m" horiz-adv-x="878" 
d="M671 0v260q0 49 -17.5 76.5t-56.5 27.5q-17 0 -32 -6t-26 -20t-17 -37.5t-6 -58.5v-242h-148v261q0 49 -17 76t-55 27q-18 0 -33 -6t-26 -20.5t-17.5 -38.5t-6.5 -60v-239h-148v482h148v-70q16 34 52 58t87 24q63 0 97 -25t49 -62q19 38 58 62.5t93 24.5q52 0 85 -16.5
t52 -44t25.5 -63t6.5 -73.5v-297h-147z" />
    <glyph glyph-name="n" unicode="n" horiz-adv-x="607" 
d="M65 482h153v-70q20 39 60.5 60.5t97.5 21.5q47 0 81 -14.5t54 -40.5q23 -28 30.5 -64.5t7.5 -88.5v-286h-153v247q0 52 -18.5 84.5t-66.5 32.5q-47 0 -70 -33t-23 -89v-242h-153v482z" />
    <glyph glyph-name="o" unicode="o" horiz-adv-x="599" 
d="M299 -13q-62 0 -111.5 20.5t-84 55t-53 80.5t-18.5 98t18.5 98t53 80.5t84 55t111.5 20.5q63 0 112.5 -20.5t84 -55t53 -80.5t18.5 -98t-18.5 -98t-53 -80.5t-84 -55t-112.5 -20.5zM299 118q26 0 47.5 9.5t36.5 26.5t23.5 39t8.5 48q0 25 -8.5 47.5t-23.5 39t-36.5 26.5
t-47.5 10t-47 -10t-36 -26.5t-23 -39t-8 -47.5q0 -26 8 -48t23 -39t36 -26.5t47 -9.5z" />
    <glyph glyph-name="p" unicode="p" horiz-adv-x="637" 
d="M334 364q-26 0 -47.5 -10t-36.5 -26.5t-23.5 -39t-8.5 -47.5t8.5 -47.5t23.5 -39t36.5 -26.5t47.5 -10q25 0 46 10t36 26.5t23.5 39t8.5 47.5t-8.5 47.5t-23.5 39t-36 26.5t-46 10zM218 413q9 16 24 31t35 26t42.5 17.5t46.5 6.5q52 0 95.5 -19.5t74.5 -53t48 -80
t17 -100.5t-17 -100.5t-48 -80t-74.5 -53t-95.5 -19.5q-24 0 -46.5 6.5t-42.5 17.5t-35 25.5t-24 31.5v-287h-153v700h153v-69z" />
    <glyph glyph-name="q" unicode="q" horiz-adv-x="637" 
d="M419 482h152v-700h-152v287q-9 -17 -24.5 -31.5t-35 -25.5t-42.5 -17.5t-46 -6.5q-52 0 -95.5 19.5t-74.5 53t-48 80t-17 100.5t17 100.5t48 80t74.5 53t95.5 19.5q23 0 46 -6.5t42.5 -17.5t35 -26t24.5 -31v69zM303 364q-26 0 -47 -10t-36 -26.5t-23 -39t-8 -47.5
t8 -47.5t23 -39t36 -26.5t47 -10t47.5 10t36.5 26.5t23.5 39t8.5 47.5t-8.5 47.5t-23.5 39t-36.5 26.5t-47.5 10z" />
    <glyph glyph-name="r" unicode="r" horiz-adv-x="417" 
d="M411 343q-16 4 -27 5.5t-27 1.5q-63 0 -101 -37t-38 -125v-188h-153v482h153v-78q17 34 56.5 60t90.5 26q27 0 46 -8v-139z" />
    <glyph glyph-name="s" unicode="s" horiz-adv-x="510" 
d="M318 284q32 -9 60 -19.5t49 -26t33.5 -38.5t12.5 -58q0 -43 -17 -72.5t-47 -48t-69.5 -26.5t-84.5 -8q-103 0 -162.5 45t-59.5 129h150q0 -38 21.5 -54.5t55.5 -16.5q28 0 45.5 10.5t17.5 34.5q0 14 -7.5 22.5t-23 16t-40 15t-58.5 18.5q-30 9 -57 19.5t-47.5 25.5
t-32.5 38t-12 58q0 75 57.5 111t155.5 36q52 0 91.5 -12.5t65 -34.5t38.5 -52t13 -64h-151q0 30 -15.5 46.5t-47.5 16.5q-23 0 -40 -10.5t-17 -32.5q0 -13 8 -21.5t23.5 -15.5t38.5 -14t53 -17z" />
    <glyph glyph-name="t" unicode="t" horiz-adv-x="383" 
d="M366 0q-17 -3 -42.5 -5.5t-59.5 -2.5q-27 0 -57 4t-55.5 20.5t-42 51t-16.5 94.5v206h-76v114h76v143h152v-143h110v-114h-110v-172q0 -27 5 -43t14 -24.5t21 -11.5t26 -3t29 0.5t26 2.5v-117z" />
    <glyph glyph-name="u" unicode="u" horiz-adv-x="607" 
d="M542 482v-482h-153v69q-20 -38 -60.5 -59.5t-97.5 -21.5q-47 0 -81 14.5t-54 40.5q-23 28 -30 64.5t-7 88.5v286h152v-247q0 -52 18.5 -84.5t66.5 -32.5t70.5 33t22.5 89v242h153z" />
    <glyph glyph-name="v" unicode="v" horiz-adv-x="551" 
d="M158 482l117 -303l118 303h160l-218 -482h-122l-215 482h160z" />
    <glyph glyph-name="w" unicode="w" horiz-adv-x="803" 
d="M402 307l-99 -307h-124l-180 482h158l89 -287l85 287h141l85 -287l89 287h158l-180 -482h-124z" />
    <glyph glyph-name="x" unicode="x" horiz-adv-x="514" 
d="M513 0h-177l-79 140l-79 -140h-177l166 243l-163 239h177l76 -136l76 136h177l-162 -239z" />
    <glyph glyph-name="y" unicode="y" horiz-adv-x="615" 
d="M303 -231q-59 0 -102.5 12t-75.5 38q-29 24 -47.5 59.5t-18.5 84.5h153q2 -41 28.5 -62.5t64.5 -21.5q44 0 69 21.5t25 77.5v99q-20 -39 -59.5 -60t-94.5 -21q-48 0 -83.5 16t-55.5 42q-23 28 -30 62.5t-7 86.5v279h152v-247q0 -52 18.5 -84.5t66.5 -32.5t70.5 33
t22.5 89v242h153v-494q0 -57 -18 -99t-49 -68q-32 -27 -75.5 -39.5t-106.5 -12.5z" />
    <glyph glyph-name="z" unicode="z" horiz-adv-x="480" 
d="M467 482l-212 -352h205v-130h-442l213 352h-200v130h436z" />
    <glyph glyph-name="braceleft" unicode="{" horiz-adv-x="477" 
d="M410 775v-124h-42q-20 0 -33 -7t-21 -18.5t-11 -26t-3 -29.5v-188q0 -32 -11.5 -53.5t-27 -34.5t-32.5 -19t-28 -7q11 -2 28 -7t32.5 -18.5t27 -36t11.5 -58.5v-167q0 -14 3 -28.5t11 -26t21 -19t33 -7.5h42v-123h-101q-34 0 -63.5 10t-51.5 30.5t-34.5 50t-12.5 68.5
v179q0 24 -8.5 40t-21 26t-28 14.5t-29.5 4.5v135q14 0 29.5 4t28 13.5t21 25t8.5 37.5v200q0 39 12.5 69t34.5 50t51.5 30.5t63.5 10.5h101z" />
    <glyph glyph-name="bar" unicode="|" horiz-adv-x="287" 
d="M81 -223v998h127v-998h-127z" />
    <glyph glyph-name="braceright" unicode="}" horiz-adv-x="477" 
d="M168 775q34 0 63.5 -10.5t51.5 -30.5t34.5 -50t12.5 -69v-200q0 -22 8 -37.5t21 -25t28.5 -13.5t29.5 -4v-135q-14 0 -29.5 -4.5t-28.5 -14.5t-21 -26t-8 -40v-179q0 -39 -12.5 -68.5t-34.5 -50t-51.5 -30.5t-63.5 -10h-101v123h41q20 0 33.5 7.5t21 19t10.5 26t3 28.5
v167q0 36 11 58.5t27 36t33 18.5t28 7q-11 1 -28 7t-33 19t-27 34.5t-11 53.5v188q0 15 -3 29.5t-10.5 26t-21 18.5t-33.5 7h-41v124h101z" />
    <glyph glyph-name="asciitilde" unicode="~" horiz-adv-x="562" 
d="M35 313q28 33 61 46t61 13q30 0 63 -9.5t67 -22.5l64 -24t55 -12q37 0 67.5 17.5t52.5 37.5v-120q-27 -33 -60 -46t-62 -13q-32 0 -60.5 9.5t-57.5 23.5t-62 24.5t-72 10.5q-34 0 -64 -17.5t-53 -37.5v120z" />
    <glyph glyph-name="nonbreakingspace" unicode="&#xa0;" horiz-adv-x="250" 
 />
    <glyph glyph-name="exclamdown" unicode="&#xa1;" horiz-adv-x="338" 
d="M68 394q0 21 8 39t21.5 32t32.5 22t40 8t40 -8t32.5 -22t21.5 -32t8 -39t-8 -39t-21.5 -32t-32.5 -22t-40 -8t-40 8t-32.5 22t-21.5 32t-8 39zM88 237h164v-455h-164v455z" />
    <glyph glyph-name="cent" unicode="&#xa2;" horiz-adv-x="606" 
d="M400 370q-5 32 -26.5 52t-68.5 20q-27 0 -47.5 -10t-33.5 -27t-19.5 -39.5t-6.5 -47.5t6.5 -47.5t20 -39.5t35 -27t51.5 -10q40 0 60 17t30 47h153q-5 -37 -20.5 -69t-41 -57.5t-61.5 -42t-82 -22.5v-109h-89v109q-53 7 -93 30t-67 57t-41 76t-14 88q0 45 14 87.5
t41 76.5t67 57t93 30v110h89v-110q49 -6 86 -24.5t62 -45.5t39 -60.5t17 -68.5h-153z" />
    <glyph glyph-name="sterling" unicode="&#xa3;" horiz-adv-x="628" 
d="M266 500v-18t0.5 -29t0.5 -32.5v-27.5h145v-88h-145q-1 -25 -2 -51.5t-4 -46.5q-2 -27 -6.5 -47t-12.5 -29h315v-131h-496v110q30 30 36 92q4 21 5.5 49t2.5 54h-70v88h70v26t-0.5 32t-0.5 29.5v19.5q0 46 19 85.5t52.5 68.5t79 45t99.5 16q55 0 101 -17.5t79 -48.5
t51.5 -74t18.5 -93h-162q0 42 -21.5 69t-69.5 27q-38 0 -61.5 -20t-23.5 -58z" />
    <glyph glyph-name="currency" unicode="&#xa4;" horiz-adv-x="757" 
d="M502 154q-61 -38 -143 -38q-80 0 -142 39l-74 -74l-70 70l73 72q-22 32 -34 69t-12 78t12 78t33 69l-71 72l69 70l73 -74q30 20 66 30.5t77 10.5t76.5 -10.5t65.5 -30.5l74 74l70 -70l-73 -73q23 -31 35 -68t12 -78q0 -85 -46 -148l71 -71l-69 -70zM359 247q26 0 47.5 10
t36.5 26.5t23.5 39t8.5 47.5t-8.5 47.5t-23.5 39.5t-36.5 26.5t-47.5 9.5t-47 -9.5t-36 -26.5t-23 -39.5t-8 -47.5t8 -47.5t23 -39t36 -26.5t47 -10z" />
    <glyph glyph-name="yen" unicode="&#xa5;" horiz-adv-x="630" 
d="M165 700l151 -275l149 275h188l-237 -394h116v-88h-138v-57h138v-88h-138v-73h-154v73h-136v88h136v57h-136v88h110l-237 394h188z" />
    <glyph glyph-name="brokenbar" unicode="&#xa6;" horiz-adv-x="287" 
d="M80 341v434h128v-434h-128zM208 217v-440h-128v440h128z" />
    <glyph glyph-name="section" unicode="&#xa7;" horiz-adv-x="575" 
d="M412 258q0 24 -10.5 39t-30.5 27q-20 11 -47.5 20.5t-61.5 20.5q-18 -1 -35.5 -7t-30.5 -16.5t-21 -26t-8 -35.5q0 -25 13 -42t35 -30q22 -12 48 -21t52 -17q19 1 36.5 8t31 18.5t21.5 27t8 34.5zM269 60q-42 14 -83 30.5t-74 39.5t-53.5 55t-20.5 77q0 58 27 96.5
t84 58.5q-38 25 -58 60t-20 84q0 43 18.5 76.5t50 56t73 34.5t86.5 12q53 0 95 -15.5t71.5 -43t45 -64.5t15.5 -80h-137q0 45 -25 71.5t-66 26.5q-37 0 -63.5 -18t-26.5 -53t28 -54t69 -33t83 -30t76.5 -38.5t56 -55t21.5 -79.5q0 -30 -9 -56t-25 -46.5t-36.5 -34
t-42.5 -18.5q38 -25 59 -60.5t21 -83.5q0 -43 -18 -77.5t-49 -58.5t-73.5 -37t-91.5 -13q-50 0 -92.5 15t-74 42.5t-49 66.5t-17.5 87h139q0 -47 27 -74.5t70 -27.5q38 0 64.5 19t26.5 54t-29 54.5t-73 34.5z" />
    <glyph glyph-name="dieresis" unicode="&#xa8;" horiz-adv-x="582" 
d="M81 616q0 19 7 36t19.5 29.5t29 19.5t35.5 7t36 -7t30 -19.5t20 -29.5t7 -36q0 -18 -7 -34.5t-20 -29t-30 -19.5t-36 -7t-35.5 7t-29 19.5t-19.5 29t-7 34.5zM321 616q0 19 7 36t19.5 29.5t29 19.5t36.5 7q19 0 36 -7t29.5 -19.5t19.5 -29.5t7 -36q0 -37 -26.5 -63.5
t-65.5 -26.5t-65.5 26.5t-26.5 63.5z" />
    <glyph glyph-name="copyright" unicode="&#xa9;" horiz-adv-x="808" 
d="M404 -18q-87 0 -156 30.5t-117 81.5t-73 117.5t-25 138.5t25 138.5t73 117.5t117 81.5t156 30.5t156 -30.5t117 -81.5t73 -117.5t25 -138.5t-25 -138.5t-73 -117.5t-117 -81.5t-156 -30.5zM404 65q64 0 114.5 23.5t85.5 63.5t53.5 91t18.5 107q0 55 -18.5 106.5
t-53.5 91.5t-85.5 63.5t-114.5 23.5t-114.5 -23.5t-85.5 -63.5t-53.5 -91.5t-18.5 -106.5q0 -56 18.5 -107t53.5 -91t85.5 -63.5t114.5 -23.5zM597 295q-6 -30 -21.5 -56t-39.5 -45.5t-56 -30.5t-70 -11q-48 0 -85.5 16t-64 43.5t-40 63.5t-13.5 76q0 39 13.5 74.5t39 62.5
t62 43.5t83.5 16.5q44 0 77.5 -12t57.5 -33t38 -49.5t18 -61.5h-94q-8 32 -31.5 53.5t-65.5 21.5q-25 0 -44.5 -9.5t-33 -26t-20.5 -37.5t-7 -43q0 -48 29 -82.5t81 -34.5q35 0 59 17.5t32 43.5h96z" />
    <glyph glyph-name="ordfeminine" unicode="&#xaa;" horiz-adv-x="635" 
d="M302 118q26 0 47 10t36 26.5t23.5 39t8.5 47.5t-8.5 47t-23.5 39t-36 27t-47 10t-47 -10t-36 -27t-23.5 -39t-8.5 -47t8.5 -47.5t23.5 -39t36 -26.5t47 -10zM570 482v-482h-153v68q-9 -17 -24 -31.5t-34.5 -25t-42.5 -17t-46 -6.5q-52 0 -95.5 19.5t-74.5 53t-48 80
t-17 100.5t17 100.5t48 80t74.5 53t95.5 19.5q23 0 46 -6.5t42.5 -17.5t34.5 -26t24 -31v69h153z" />
    <glyph glyph-name="guillemotleft" unicode="&#xab;" horiz-adv-x="512" 
d="M250 78l-213 173v80l213 173v-133l-103 -80l103 -80v-133zM470 78l-213 173v80l213 173v-133l-103 -80l103 -80v-133z" />
    <glyph glyph-name="logicalnot" unicode="&#xac;" 
d="M390 313h-297v122h427v-301h-130v179z" />
    <glyph glyph-name="softhyphen" unicode="&#xad;" horiz-adv-x="294" 
d="M264 236h-234v97h234v-97z" />
    <glyph glyph-name="registered" unicode="&#xae;" horiz-adv-x="808" 
d="M404 -18q-87 0 -156 30.5t-117 81.5t-73 117.5t-25 138.5t25 138.5t73 117.5t117 81.5t156 30.5t156 -30.5t117 -81.5t73 -117.5t25 -138.5t-25 -138.5t-73 -117.5t-117 -81.5t-156 -30.5zM404 65q64 0 114.5 23.5t85.5 63.5t53.5 91t18.5 107q0 55 -18.5 106.5
t-53.5 91.5t-85.5 63.5t-114.5 23.5t-114.5 -23.5t-85.5 -63.5t-53.5 -91.5t-18.5 -106.5q0 -56 18.5 -107t53.5 -91t85.5 -63.5t114.5 -23.5zM421 351q27 0 42.5 18.5t15.5 44.5t-15.5 45.5t-42.5 19.5h-65v-128h65zM260 164v392h177q32 0 58.5 -11.5t45 -31t28.5 -45
t10 -54.5q0 -42 -20.5 -75.5t-57.5 -50.5l78 -124h-109l-70 109h-44v-109h-96z" />
    <glyph glyph-name="macron" unicode="&#xaf;" horiz-adv-x="519" 
d="M443 705h-368v115h368v-115z" />
    <glyph glyph-name="degree" unicode="&#xb0;" horiz-adv-x="344" 
d="M324 574q0 -32 -12 -59.5t-32.5 -48t-48 -32.5t-59.5 -12t-59.5 12t-48 32.5t-32.5 48t-12 59.5t12 59.5t32.5 48t48 32.5t59.5 12t59.5 -12t48 -32.5t32.5 -48t12 -59.5zM230 574q0 23 -17.5 41t-40.5 18t-40.5 -18t-17.5 -41q0 -24 17.5 -41t40.5 -17t40.5 17t17.5 41z
" />
    <glyph glyph-name="plusminus" unicode="&#xb1;" 
d="M217 219v153h-149v122h149v153h130v-153h149v-122h-149v-153h-130zM68 0v122h428v-122h-428z" />
    <glyph glyph-name="twosuperior" unicode="&#xb2;" horiz-adv-x="397" 
d="M54 315q0 48 7.5 80.5t20.5 55t31.5 38t41.5 29.5q41 23 62.5 39t21.5 41q0 20 -10.5 28.5t-25.5 8.5q-18 0 -29 -11.5t-11 -39.5h-107q0 24 8.5 46.5t26 40t45.5 28t67 10.5q27 0 52.5 -6.5t45 -20.5t31.5 -36.5t12 -53.5q0 -23 -8.5 -41.5t-22.5 -34t-31.5 -28
t-35.5 -22.5q-19 -11 -32 -19.5t-21.5 -16t-12 -15t-3.5 -17.5h164v-83h-287v0z" />
    <glyph glyph-name="threesuperior" unicode="&#xb3;" horiz-adv-x="404" 
d="M154 445q0 -58 47 -58q21 0 31.5 14t10.5 31q0 22 -11 33.5t-37 11.5h-41v79h41q26 0 35.5 10.5t9.5 29.5q0 20 -10 29.5t-27 9.5q-24 0 -32 -14t-8 -37h-107q0 23 7 45.5t24 40t45 28.5t71 11q28 0 54 -6t45.5 -19t31.5 -34t12 -50q0 -32 -18.5 -55.5t-41.5 -30.5
q26 -8 45 -32.5t19 -60.5q0 -29 -12 -50.5t-32.5 -36t-46.5 -21.5t-54 -7q-42 0 -72 10.5t-49 29.5t-28 44.5t-9 54.5h107z" />
    <glyph glyph-name="acute" unicode="&#xb4;" horiz-adv-x="513" 
d="M105 503l-48 106l276 128l48 -106z" />
    <glyph glyph-name="uni00B5" unicode="&#xb5;" 
d="M65 482h152v-249q1 -51 19.5 -83t65.5 -32q48 0 70.5 33t22.5 89v242h153v-482h-153v69q-39 -71 -137 -79q-23 0 -41 6v-214h-152v700z" />
    <glyph glyph-name="paragraph" unicode="&#xb6;" horiz-adv-x="679" 
d="M238 298q-47 0 -88 14t-71 40.5t-47.5 65t-17.5 87.5q0 61 24 101.5t60.5 65t80 35t81.5 10.5h363v-107h-56v-776h-120v776h-88v-776h-121v464z" />
    <glyph glyph-name="periodcentered" unicode="&#xb7;" horiz-adv-x="296" 
d="M47 312q0 21 7.5 39t21 31.5t32 21.5t39.5 8q44 0 73 -29t29 -71t-29 -71t-73 -29q-21 0 -39.5 8t-32 21.5t-21 31.5t-7.5 39z" />
    <glyph glyph-name="cedilla" unicode="&#xb8;" horiz-adv-x="473" 
d="M144 12h78v-67q13 15 42 15q16 0 31.5 -6.5t26.5 -18.5t18 -28.5t7 -35.5t-7 -37t-20.5 -32.5t-34 -23t-47.5 -8.5q-14 0 -32 4.5t-34 15t-28 28.5t-15 45h74q3 -14 12 -22t23 -8q15 0 24.5 10.5t9.5 27.5q0 15 -9.5 24.5t-23.5 9.5q-21 0 -30 -16h-65v123z" />
    <glyph glyph-name="onesuperior" unicode="&#xb9;" horiz-adv-x="298" 
d="M46 630q29 0 47.5 4.5t29 13.5t14.5 22t4 30h92v-385h-108v243h-79v72z" />
    <glyph glyph-name="ordmasculine" unicode="&#xba;" horiz-adv-x="599" 
d="M299 -13q-62 0 -111.5 20.5t-84 55t-53 80.5t-18.5 98t18.5 98t53 80.5t84 55t111.5 20.5q63 0 112.5 -20.5t84 -55t53 -80.5t18.5 -98t-18.5 -98t-53 -80.5t-84 -55t-112.5 -20.5zM299 118q26 0 47.5 9.5t36.5 26.5t23.5 39t8.5 48q0 25 -8.5 47.5t-23.5 39t-36.5 26.5
t-47.5 10t-47 -10t-36 -26.5t-23 -39t-8 -47.5q0 -26 8 -48t23 -39t36 -26.5t47 -9.5z" />
    <glyph glyph-name="guillemotright" unicode="&#xbb;" horiz-adv-x="512" 
d="M262 211l102 80l-102 80v133l213 -173v-80l-213 -173v133zM42 211l102 80l-102 80v133l213 -173v-80l-213 -173v133z" />
    <glyph glyph-name="onequarter" unicode="&#xbc;" horiz-adv-x="955" 
d="M560 754l106 -53l-400 -754l-105 53zM56 630q29 0 48 4.5t29.5 13.5t14.5 22t4 30h92v-385h-109v243h-79v72zM733 100h-163v285h107v-197h56v100h107v-100h42v-88h-42v-100h-107v100z" />
    <glyph glyph-name="onehalf" unicode="&#xbd;" horiz-adv-x="955" 
d="M566 754l105 -53l-399 -754l-106 53zM62 630q29 0 48 4.5t29.5 13.5t14.5 22t4 30h91v-385h-108v243h-79v72zM573 0q0 48 7.5 80.5t20.5 55t31.5 38t41.5 29.5q41 23 62.5 39t21.5 41q0 20 -10.5 28.5t-25.5 8.5q-18 0 -29.5 -11.5t-11.5 -39.5h-107q0 24 8.5 46.5
t26.5 40t45.5 28t66.5 10.5q27 0 52.5 -6.5t45 -20.5t31.5 -36.5t12 -53.5q0 -23 -8.5 -41.5t-22.5 -34t-31.5 -28t-35.5 -22.5q-19 -11 -32 -19.5t-21 -16t-11.5 -15t-3.5 -17.5h164v-83h-287z" />
    <glyph glyph-name="threequarters" unicode="&#xbe;" horiz-adv-x="955" 
d="M573 754l105 -53l-399 -754l-106 53zM140 445q0 -58 47 -58q21 0 31 14t10 31q0 22 -10.5 33.5t-36.5 11.5h-41v79h40q27 0 36.5 10.5t9.5 29.5q0 20 -10 29.5t-27 9.5q-24 0 -32 -14t-8 -37h-107q0 23 7 45.5t23.5 40t45 28.5t70.5 11q28 0 54 -6t45.5 -19t31.5 -34
t12 -50q0 -32 -18.5 -55.5t-41.5 -30.5q26 -8 45 -32.5t19 -60.5q0 -29 -12 -50.5t-32 -36t-46 -21.5t-54 -7q-42 0 -72 10.5t-49 29.5t-28 44.5t-9 54.5h107zM738 100h-163v285h107v-197h56v100h107v-100h42v-88h-42v-100h-107v100z" />
    <glyph glyph-name="questiondown" unicode="&#xbf;" horiz-adv-x="542" 
d="M390 398q0 -21 -8 -39.5t-22 -33t-33 -22.5t-41 -8t-41 8t-33 22.5t-22 33t-8 39.5t8 39.5t22 33t33 22.5t41 8t41 -8t33 -22.5t22 -33t8 -39.5zM366 266q0 -32 -4 -58t-14 -48t-26.5 -40.5t-43.5 -36.5q-14 -10 -29 -21.5t-27.5 -25.5t-20.5 -31t-8 -38q0 -38 24 -56.5
t60 -18.5q35 0 60.5 23.5t25.5 77.5h160q0 -48 -16 -88.5t-47.5 -70.5t-77.5 -47t-105 -17q-48 0 -92 12.5t-77 37.5t-53 62t-20 86q0 38 11.5 66t28.5 49t35 36t32 26q19 15 31 27t19.5 25t10.5 29t3 40h160z" />
    <glyph glyph-name="Agrave" unicode="&#xc0;" horiz-adv-x="660" 
d="M181 865l48 106l276 -128l-48 -106zM243 212h170l-84 288zM656 0h-176l-27 85h-249l-27 -85h-173l250 700h149z" />
    <glyph glyph-name="Aacute" unicode="&#xc1;" horiz-adv-x="660" 
d="M217 727l-49 106l276 128l49 -106zM243 212h170l-84 288zM656 0h-176l-27 85h-249l-27 -85h-173l250 700h149z" />
    <glyph glyph-name="Acircumflex" unicode="&#xc2;" horiz-adv-x="660" 
d="M329 993l197 -164l-76 -84l-120 107l-120 -106l-76 83zM243 212h170l-84 288zM656 0h-176l-27 85h-249l-27 -85h-173l250 700h149z" />
    <glyph glyph-name="Atilde" unicode="&#xc3;" horiz-adv-x="660" 
d="M400 884q25 0 40.5 13.5t29.5 32.5l80 -70q-28 -45 -66 -64t-77 -19q-28 0 -49.5 7.5t-39 16t-33 16t-30.5 7.5q-25 0 -39.5 -13t-28.5 -33l-78 77q28 41 64.5 58.5t75.5 17.5q28 0 49 -7.5t38.5 -16t32.5 -16t31 -7.5zM243 212h170l-84 288zM656 0h-176l-27 85h-249
l-27 -85h-173l250 700h149z" />
    <glyph glyph-name="Adieresis" unicode="&#xc4;" horiz-adv-x="660" 
d="M114 852q0 19 7.5 36.5t20 30t29.5 20t37 7.5t37.5 -7.5t30.5 -20t20.5 -30t7.5 -36.5t-7.5 -36t-20.5 -29.5t-30.5 -20t-37.5 -7.5t-37 7.5t-29.5 20t-20 29.5t-7.5 36zM355 852q0 39 27 66.5t67 27.5q20 0 37.5 -7.5t30 -20t20 -30t7.5 -36.5t-7.5 -36t-20 -29.5
t-30 -20t-37.5 -7.5t-37 7.5t-30 20t-20 29.5t-7 36zM243 212h170l-84 288zM656 0h-176l-27 85h-249l-27 -85h-173l250 700h149z" />
    <glyph glyph-name="Aring" unicode="&#xc5;" horiz-adv-x="660" 
d="M330 1002q28 0 52.5 -11t42.5 -29.5t28.5 -43t10.5 -51.5t-10.5 -51.5t-28.5 -43t-42.5 -29t-52.5 -10.5t-52.5 10.5t-42.5 29t-28.5 43t-10.5 51.5q0 28 10.5 52.5t28.5 43t42.5 29t52.5 10.5zM330 920q-22 0 -36.5 -15.5t-14.5 -37.5q0 -20 15 -35t36 -15t36 15t15 36
t-14.5 36.5t-36.5 15.5zM243 212h170l-84 288zM656 0h-176l-27 85h-249l-27 -85h-173l250 700h149z" />
    <glyph glyph-name="AE" unicode="&#xc6;" horiz-adv-x="919" 
d="M427 213v342l-156 -342h156zM589 570v-159h265v-127h-265v-154h265v-130h-427v86h-212l-38 -86h-176l336 700h517v-130h-265z" />
    <glyph glyph-name="Ccedilla" unicode="&#xc7;" horiz-adv-x="788" 
d="M587 428q-6 31 -20.5 57t-37 45.5t-53 30.5t-67.5 11q-51 0 -90.5 -18.5t-66.5 -49t-41 -70.5t-14 -83q0 -46 14.5 -86.5t43 -71t69 -48t93.5 -17.5q30 0 57 9.5t49.5 26t38.5 39t23 48.5h172q-10 -53 -36.5 -99.5t-67.5 -82.5t-95 -58.5t-120 -26.5v-40q13 15 45 15
q34 0 57 -24t23 -61q0 -19 -7 -36.5t-20.5 -31t-34 -22t-47.5 -8.5q-14 0 -32 4t-34 14t-28 27.5t-15 43.5h74q6 -26 35 -26q15 0 24.5 10t9.5 25q0 14 -9.5 24t-23.5 10q-20 0 -30 -17h-65v94q-78 8 -139 40.5t-103 82t-64 112t-22 131.5q0 72 25 138t72.5 117t115.5 81.5
t154 30.5q81 0 144.5 -23t108 -62t70.5 -92t34 -113h-169z" />
    <glyph glyph-name="Egrave" unicode="&#xc8;" horiz-adv-x="555" 
d="M131 856l48 106l276 -128l-48 -106zM229 570v-159h265v-127h-265v-154h265v-130h-427v700h427v-130h-265z" />
    <glyph glyph-name="Eacute" unicode="&#xc9;" horiz-adv-x="555" 
d="M166 740l-48 106l276 128l48 -106zM229 570v-159h265v-127h-265v-154h265v-130h-427v700h427v-130h-265z" />
    <glyph glyph-name="Ecircumflex" unicode="&#xca;" horiz-adv-x="555" 
d="M283 993l197 -164l-76 -84l-120 107l-119 -106l-77 83zM229 570v-159h265v-127h-265v-154h265v-130h-427v700h427v-130h-265z" />
    <glyph glyph-name="Edieresis" unicode="&#xcb;" horiz-adv-x="555" 
d="M76 852q0 19 7.5 36.5t20 30t29.5 20t37 7.5t37.5 -7.5t30.5 -20t20.5 -30t7.5 -36.5t-7.5 -36t-20.5 -29.5t-30.5 -20t-37.5 -7.5t-37 7.5t-29.5 20t-20 29.5t-7.5 36zM317 852q0 39 27 66.5t67 27.5q20 0 37.5 -7.5t30 -20t20 -30t7.5 -36.5t-7.5 -36t-20 -29.5
t-30 -20t-37.5 -7.5t-37 7.5t-30 20t-20 29.5t-7 36zM229 570v-159h265v-127h-265v-154h265v-130h-427v700h427v-130h-265z" />
    <glyph glyph-name="Igrave" unicode="&#xcc;" horiz-adv-x="298" 
d="M-13 855l48 106l276 -128l-48 -106zM67 700h164v-700h-164v700z" />
    <glyph glyph-name="Iacute" unicode="&#xcd;" horiz-adv-x="298" 
d="M35 727l-48 106l276 128l48 -106zM67 700h164v-700h-164v700z" />
    <glyph glyph-name="Icircumflex" unicode="&#xce;" horiz-adv-x="298" 
d="M149 993l197 -164l-76 -84l-120 107l-119 -106l-77 83zM67 700h164v-700h-164v700z" />
    <glyph glyph-name="Idieresis" unicode="&#xcf;" horiz-adv-x="298" 
d="M-60 852q0 19 7.5 36.5t20 30t29.5 20t37 7.5t37.5 -7.5t30.5 -20t20.5 -30t7.5 -36.5t-7.5 -36t-20.5 -29.5t-30.5 -20t-37.5 -7.5t-37 7.5t-29.5 20t-20 29.5t-7.5 36zM181 852q0 39 27 66.5t67 27.5q20 0 37.5 -7.5t30 -20t20 -30t7.5 -36.5t-7.5 -36t-20 -29.5
t-30 -20t-37.5 -7.5t-37 7.5t-30 20t-20 29.5t-7 36zM67 700h164v-700h-164v700z" />
    <glyph glyph-name="Eth" unicode="&#xd0;" horiz-adv-x="720" 
d="M324 700q86 0 154 -29.5t114.5 -78.5t71 -112t24.5 -130t-24.5 -130t-71 -112t-114 -78.5t-154.5 -29.5h-257v306h-102v89h102v305h257zM333 306h-104v-166h87q49 0 87.5 17.5t65 47t40.5 67t14 78.5q0 40 -14 78t-40.5 67.5t-65 47t-87.5 17.5h-87v-165h104v-89z" />
    <glyph glyph-name="Ntilde" unicode="&#xd1;" horiz-adv-x="717" 
d="M420 884q25 0 40.5 13.5t29.5 32.5l80 -70q-28 -45 -66 -64t-77 -19q-28 0 -49.5 7.5t-39 16t-33 16t-30.5 7.5q-25 0 -39.5 -13t-28.5 -33l-78 77q28 41 64.5 58.5t75.5 17.5q28 0 49 -7.5t38.5 -16t32.5 -16t31 -7.5zM489 244v456h161v-700h-169l-252 450v-450h-162
v700h169z" />
    <glyph glyph-name="Ograve" unicode="&#xd2;" horiz-adv-x="805" 
d="M228 868l48 106l276 -128l-48 -106zM403 -18q-87 0 -156 30.5t-117 81.5t-73 117.5t-25 138.5t25 138.5t73 117.5t117 81.5t156 30.5t155.5 -30.5t116.5 -81.5t73 -117.5t25 -138.5t-25 -138.5t-73 -117.5t-116.5 -81.5t-155.5 -30.5zM403 128q48 0 86 18.5t64.5 49.5
t40.5 71t14 83t-14 83t-40.5 71t-64.5 49.5t-86 18.5t-86 -18.5t-64.5 -49.5t-40.5 -71t-14 -83t14 -83t40.5 -71t64.5 -49.5t86 -18.5z" />
    <glyph glyph-name="Oacute" unicode="&#xd3;" horiz-adv-x="805" 
d="M298 740l-48 106l276 128l48 -106zM403 -18q-87 0 -156 30.5t-117 81.5t-73 117.5t-25 138.5t25 138.5t73 117.5t117 81.5t156 30.5t155.5 -30.5t116.5 -81.5t73 -117.5t25 -138.5t-25 -138.5t-73 -117.5t-116.5 -81.5t-155.5 -30.5zM403 128q48 0 86 18.5t64.5 49.5
t40.5 71t14 83t-14 83t-40.5 71t-64.5 49.5t-86 18.5t-86 -18.5t-64.5 -49.5t-40.5 -71t-14 -83t14 -83t40.5 -71t64.5 -49.5t86 -18.5z" />
    <glyph glyph-name="Ocircumflex" unicode="&#xd4;" horiz-adv-x="805" 
d="M403 993l197 -164l-76 -84l-120 107l-120 -106l-76 83zM403 -18q-87 0 -156 30.5t-117 81.5t-73 117.5t-25 138.5t25 138.5t73 117.5t117 81.5t156 30.5t155.5 -30.5t116.5 -81.5t73 -117.5t25 -138.5t-25 -138.5t-73 -117.5t-116.5 -81.5t-155.5 -30.5zM403 128
q48 0 86 18.5t64.5 49.5t40.5 71t14 83t-14 83t-40.5 71t-64.5 49.5t-86 18.5t-86 -18.5t-64.5 -49.5t-40.5 -71t-14 -83t14 -83t40.5 -71t64.5 -49.5t86 -18.5z" />
    <glyph glyph-name="Otilde" unicode="&#xd5;" horiz-adv-x="805" 
d="M476 884q25 0 40.5 13.5t29.5 32.5l80 -70q-28 -45 -66 -64t-77 -19q-28 0 -49.5 7.5t-39 16t-33 16t-30.5 7.5q-25 0 -39.5 -13t-28.5 -33l-78 77q28 41 64.5 58.5t75.5 17.5q28 0 49 -7.5t38.5 -16t32.5 -16t31 -7.5zM403 -18q-87 0 -156 30.5t-117 81.5t-73 117.5
t-25 138.5t25 138.5t73 117.5t117 81.5t156 30.5t155.5 -30.5t116.5 -81.5t73 -117.5t25 -138.5t-25 -138.5t-73 -117.5t-116.5 -81.5t-155.5 -30.5zM403 128q48 0 86 18.5t64.5 49.5t40.5 71t14 83t-14 83t-40.5 71t-64.5 49.5t-86 18.5t-86 -18.5t-64.5 -49.5t-40.5 -71
t-14 -83t14 -83t40.5 -71t64.5 -49.5t86 -18.5z" />
    <glyph glyph-name="Odieresis" unicode="&#xd6;" horiz-adv-x="805" 
d="M427 854q0 39 27 66.5t67 27.5q20 0 37.5 -7.5t30 -20t20 -30t7.5 -36.5t-7.5 -36t-20 -29.5t-30 -20t-37.5 -7.5t-37 7.5t-30 20t-20 29.5t-7 36zM186 854q0 19 7.5 36.5t20 30t29.5 20t37 7.5t37.5 -7.5t30 -20t20 -30t7.5 -36.5t-7.5 -36t-20 -29.5t-30 -20
t-37.5 -7.5t-37 7.5t-29.5 20t-20 29.5t-7.5 36zM403 -18q-87 0 -156 30.5t-117 81.5t-73 117.5t-25 138.5t25 138.5t73 117.5t117 81.5t156 30.5t155.5 -30.5t116.5 -81.5t73 -117.5t25 -138.5t-25 -138.5t-73 -117.5t-116.5 -81.5t-155.5 -30.5zM198 350q0 -43 14 -83
t40.5 -71t64.5 -49.5t86 -18.5t86 18.5t64.5 49.5t40.5 71t14 83t-14 83t-40.5 71t-64.5 49.5t-86 18.5t-86 -18.5t-64.5 -49.5t-40.5 -71t-14 -83z" />
    <glyph glyph-name="multiply" unicode="&#xd7;" 
d="M411 482l92 -92l-108 -108l106 -105l-87 -86l-105 104l-108 -107l-92 92l108 107l-105 105l86 87l105 -105z" />
    <glyph glyph-name="Oslash" unicode="&#xd8;" horiz-adv-x="805" 
d="M198 350q0 -51 19.5 -97t56.5 -78l169 391q-18 6 -40 6q-48 0 -86 -18.5t-64.5 -49.5t-40.5 -71t-14 -83zM608 350q0 54 -22 101.5t-62 78.5l-171 -396q11 -3 24.5 -4.5t25.5 -1.5q48 0 86 18.5t64.5 49.5t40.5 71t14 83zM403 -18q-60 0 -111 15l-39 -90l-81 36l38 88
q-43 24 -76 58.5t-55.5 76t-34.5 88.5t-12 96q0 72 25 138.5t73 117.5t117 81.5t156 30.5q27 0 52.5 -3.5t48.5 -9.5l37 84l81 -37l-34 -79q44 -24 78.5 -59t58 -77t36 -89.5t12.5 -97.5q0 -72 -25 -138.5t-73 -117.5t-116.5 -81.5t-155.5 -30.5z" />
    <glyph glyph-name="Ugrave" unicode="&#xd9;" horiz-adv-x="657" 
d="M176 868l48 106l276 -128l-48 -106zM56 700h162v-460q0 -24 8 -45.5t22.5 -37.5t34.5 -25.5t45 -9.5t45.5 9.5t35 25.5t22.5 37.5t8 45.5v460h162v-461q0 -54 -19 -101t-54.5 -81.5t-86 -54.5t-113.5 -20t-113 20t-85.5 54.5t-54.5 81.5t-19 101v461z" />
    <glyph glyph-name="Uacute" unicode="&#xda;" horiz-adv-x="657" 
d="M198 740l-48 106l276 128l48 -106zM56 700h162v-460q0 -24 8 -45.5t22.5 -37.5t34.5 -25.5t45 -9.5t45.5 9.5t35 25.5t22.5 37.5t8 45.5v460h162v-461q0 -54 -19 -101t-54.5 -81.5t-86 -54.5t-113.5 -20t-113 20t-85.5 54.5t-54.5 81.5t-19 101v461z" />
    <glyph glyph-name="Ucircumflex" unicode="&#xdb;" horiz-adv-x="657" 
d="M325 993l196 -164l-76 -84l-120 107l-119 -106l-77 83zM56 700h162v-460q0 -24 8 -45.5t22.5 -37.5t34.5 -25.5t45 -9.5t45.5 9.5t35 25.5t22.5 37.5t8 45.5v460h162v-461q0 -54 -19 -101t-54.5 -81.5t-86 -54.5t-113.5 -20t-113 20t-85.5 54.5t-54.5 81.5t-19 101v461z
" />
    <glyph glyph-name="Udieresis" unicode="&#xdc;" horiz-adv-x="657" 
d="M111 852q0 19 7.5 36.5t20 30t29.5 20t37 7.5t37.5 -7.5t30 -20t20 -30t7.5 -36.5t-7.5 -36t-20 -29.5t-30 -20t-37.5 -7.5t-37 7.5t-29.5 20t-20 29.5t-7.5 36zM352 852q0 39 27 66.5t67 27.5q20 0 37.5 -7.5t30 -20t20 -30t7.5 -36.5t-7.5 -36t-20 -29.5t-30 -20
t-37.5 -7.5t-37 7.5t-30 20t-20 29.5t-7 36zM56 700h162v-460q0 -24 8 -45.5t22.5 -37.5t34.5 -25.5t45 -9.5t45.5 9.5t35 25.5t22.5 37.5t8 45.5v460h162v-461q0 -54 -19 -101t-54.5 -81.5t-86 -54.5t-113.5 -20t-113 20t-85.5 54.5t-54.5 81.5t-19 101v461z" />
    <glyph glyph-name="Yacute" unicode="&#xdd;" horiz-adv-x="641" 
d="M246 738l-48 105l276 128l48 -105zM302 0h-179l129 263l-248 437h189l149 -275l128 275h179z" />
    <glyph glyph-name="Thorn" unicode="&#xde;" horiz-adv-x="539" 
d="M64 700h148v-115h44q63 0 111.5 -20t81.5 -53t50 -76.5t17 -90.5t-17 -90.5t-50 -76.5t-81.5 -53t-111.5 -20h-44v-105h-148v700zM212 458v-226h44q27 0 47.5 9.5t34.5 25t21.5 36t7.5 42.5t-7.5 42.5t-21.5 36t-34.5 25t-47.5 9.5h-44z" />
    <glyph glyph-name="germandbls" unicode="&#xdf;" horiz-adv-x="593" 
d="M241 119q15 -4 33.5 -6t27.5 -2q19 0 36.5 6.5t31 18.5t21.5 30.5t8 42.5q0 16 -6 33t-18 31t-31 23t-45 9h-29v122h27q50 0 71 26t21 62q0 39 -26.5 60.5t-62.5 21.5q-42 0 -65 -29t-23 -77v-491h-158v491q0 45 14.5 85.5t44.5 71t76.5 49t111.5 18.5q48 0 92 -12
t77.5 -36.5t54 -61.5t20.5 -86q0 -62 -32 -100.5t-77 -54.5q24 -9 45.5 -24.5t38 -37t26.5 -48.5t10 -58q0 -52 -18 -91t-48 -65.5t-70.5 -39.5t-85.5 -13q-33 0 -55.5 4t-37.5 9v119z" />
    <glyph glyph-name="agrave" unicode="&#xe0;" horiz-adv-x="635" 
d="M120 637l48 106l276 -128l-48 -106zM302 118q26 0 47 10t36 26.5t23.5 39t8.5 47.5t-8.5 47t-23.5 39t-36 27t-47 10t-47 -10t-36 -27t-23.5 -39t-8.5 -47t8.5 -47.5t23.5 -39t36 -26.5t47 -10zM570 482v-482h-153v68q-9 -17 -24 -31.5t-34.5 -25t-42.5 -17t-46 -6.5
q-52 0 -95.5 19.5t-74.5 53t-48 80t-17 100.5t17 100.5t48 80t74.5 53t95.5 19.5q23 0 46 -6.5t42.5 -17.5t34.5 -26t24 -31v69h153z" />
    <glyph glyph-name="aacute" unicode="&#xe1;" horiz-adv-x="635" 
d="M172 509l-49 106l276 128l49 -106zM302 118q26 0 47 10t36 26.5t23.5 39t8.5 47.5t-8.5 47t-23.5 39t-36 27t-47 10t-47 -10t-36 -27t-23.5 -39t-8.5 -47t8.5 -47.5t23.5 -39t36 -26.5t47 -10zM570 482v-482h-153v68q-9 -17 -24 -31.5t-34.5 -25t-42.5 -17t-46 -6.5
q-52 0 -95.5 19.5t-74.5 53t-48 80t-17 100.5t17 100.5t48 80t74.5 53t95.5 19.5q23 0 46 -6.5t42.5 -17.5t34.5 -26t24 -31v69h153z" />
    <glyph glyph-name="acircumflex" unicode="&#xe2;" horiz-adv-x="635" 
d="M313 781l197 -164l-76 -84l-120 107l-119 -106l-77 83zM302 118q26 0 47 10t36 26.5t23.5 39t8.5 47.5t-8.5 47t-23.5 39t-36 27t-47 10t-47 -10t-36 -27t-23.5 -39t-8.5 -47t8.5 -47.5t23.5 -39t36 -26.5t47 -10zM570 482v-482h-153v68q-9 -17 -24 -31.5t-34.5 -25
t-42.5 -17t-46 -6.5q-52 0 -95.5 19.5t-74.5 53t-48 80t-17 100.5t17 100.5t48 80t74.5 53t95.5 19.5q23 0 46 -6.5t42.5 -17.5t34.5 -26t24 -31v69h153z" />
    <glyph glyph-name="atilde" unicode="&#xe3;" horiz-adv-x="635" 
d="M397 680q25 0 40.5 13t28.5 33l81 -71q-28 -44 -66 -63.5t-77 -19.5q-28 0 -49.5 7.5t-39 16t-33 16t-30.5 7.5q-25 0 -40 -13t-29 -33l-78 77q29 41 65 58.5t76 17.5q28 0 49 -7t38.5 -16t32.5 -16t31 -7zM302 118q26 0 47 10t36 26.5t23.5 39t8.5 47.5t-8.5 47
t-23.5 39t-36 27t-47 10t-47 -10t-36 -27t-23.5 -39t-8.5 -47t8.5 -47.5t23.5 -39t36 -26.5t47 -10zM570 482v-482h-153v68q-9 -17 -24 -31.5t-34.5 -25t-42.5 -17t-46 -6.5q-52 0 -95.5 19.5t-74.5 53t-48 80t-17 100.5t17 100.5t48 80t74.5 53t95.5 19.5q23 0 46 -6.5
t42.5 -17.5t34.5 -26t24 -31v69h153z" />
    <glyph glyph-name="adieresis" unicode="&#xe4;" horiz-adv-x="635" 
d="M179 537q-20 0 -37 7.5t-29.5 20t-20 29.5t-7.5 36t7.5 36.5t20 30t29.5 20t37 7.5t37.5 -7.5t30 -20t20 -30t7.5 -36.5t-7.5 -36t-20 -29.5t-30 -20t-37.5 -7.5zM420 537q-20 0 -37 7.5t-30 20t-20 29.5t-7 36q0 39 27 66.5t67 27.5q20 0 37.5 -7.5t30 -20t20 -30
t7.5 -36.5t-7.5 -36t-20 -29.5t-30 -20t-37.5 -7.5zM302 118q26 0 47 10t36 26.5t23.5 39t8.5 47.5t-8.5 47t-23.5 39t-36 27t-47 10t-47 -10t-36 -27t-23.5 -39t-8.5 -47t8.5 -47.5t23.5 -39t36 -26.5t47 -10zM417 0v68q-9 -17 -24 -31.5t-34.5 -25t-42.5 -17t-46 -6.5
q-52 0 -95.5 19.5t-74.5 53t-48 80t-17 100.5t17 100.5t48 80t74.5 53t95.5 19.5q23 0 46 -6.5t42.5 -17.5t34.5 -26t24 -31v69h153v-482h-153z" />
    <glyph glyph-name="aring" unicode="&#xe5;" horiz-adv-x="635" 
d="M307 528q-29 0 -54 11t-43.5 30t-29.5 44t-11 53q0 29 11 54t29.5 44t43.5 29.5t54 10.5t54 -11t44 -30t29.5 -44t10.5 -53t-10.5 -53t-29.5 -44t-44 -30t-54 -11zM307 726q-25 0 -41.5 -17.5t-16.5 -42.5q0 -23 17 -40t41 -17t41 17t17 42q0 23 -16 40.5t-42 17.5z
M302 118q26 0 47 10t36 26.5t23.5 39t8.5 47.5t-8.5 47t-23.5 39t-36 27t-47 10t-47 -10t-36 -27t-23.5 -39t-8.5 -47t8.5 -47.5t23.5 -39t36 -26.5t47 -10zM570 482v-482h-153v68q-9 -17 -24 -31.5t-34.5 -25t-42.5 -17t-46 -6.5q-52 0 -95.5 19.5t-74.5 53t-48 80
t-17 100.5t17 100.5t48 80t74.5 53t95.5 19.5q23 0 46 -6.5t42.5 -17.5t34.5 -26t24 -31v69h153z" />
    <glyph glyph-name="ae" unicode="&#xe6;" horiz-adv-x="961" 
d="M555 482v-12q25 11 54.5 18t64.5 7q57 0 102.5 -18t78 -48t50 -70t17.5 -84q0 -15 -0.5 -32t-4.5 -39h-346q0 -22 6 -41.5t18.5 -34t32.5 -23t49 -8.5q40 0 60.5 16t28.5 39h150q-6 -34 -24.5 -64t-49 -52.5t-72 -35.5t-92.5 -13q-36 0 -66.5 7t-56.5 19v-13h-138v68
q-9 -17 -24 -31.5t-34.5 -25t-42.5 -17t-46 -6.5q-52 0 -95.5 19.5t-74.5 53t-48 80t-17 100.5t17 100.5t48 80t74.5 53t95.5 19.5q23 0 46 -6.5t42.5 -17.5t34.5 -26t24 -31v69h138zM672 387q-42 0 -70.5 -24.5t-29.5 -70.5h199q0 43 -27 69t-72 26zM302 118q26 0 47 10
t36 26.5t23.5 39t8.5 47.5t-8.5 47.5t-23.5 39.5t-36.5 26.5t-46.5 9.5q-26 0 -47 -10t-36 -27t-23.5 -39t-8.5 -47t8.5 -47.5t23.5 -39t36 -26.5t47 -10z" />
    <glyph glyph-name="ccedilla" unicode="&#xe7;" horiz-adv-x="575" 
d="M237 -8q-50 9 -88.5 32t-64 56.5t-38.5 74.5t-13 86q0 50 16.5 96t49.5 81t81.5 56t111.5 21q61 0 106 -17t75.5 -45t47 -64.5t20.5 -75.5h-153q-5 32 -26.5 52t-68.5 20q-27 0 -47.5 -10t-33.5 -27t-19.5 -39.5t-6.5 -47.5t6.5 -47.5t20 -39.5t35 -27t51.5 -10
q40 0 60 16.5t30 47.5h153q-6 -39 -22.5 -73t-45 -59.5t-68 -41.5t-91.5 -19v-42q7 7 18 11t28 4q33 0 56 -24t23 -61q0 -19 -7 -36.5t-20.5 -31t-34 -22t-47.5 -8.5q-14 0 -31.5 4t-33.5 14t-28 27.5t-15 43.5h74q6 -26 34 -26q15 0 25 10t10 25q0 14 -9.5 24t-23.5 10
q-21 0 -31 -17h-65v99z" />
    <glyph glyph-name="egrave" unicode="&#xe8;" horiz-adv-x="577" 
d="M149 637l48 106l276 -128l-48 -106zM186 204q1 -22 6.5 -41.5t18 -34t32.5 -23t50 -8.5q40 0 60.5 16t28.5 39h150q-5 -34 -23.5 -64t-49 -52.5t-72 -35.5t-93.5 -13q-63 0 -111.5 18.5t-81.5 52.5t-50 80.5t-17 102.5q0 53 16.5 99t49 80.5t80 54.5t110.5 20
q57 0 102.5 -18t78 -48t50 -70t17.5 -84q0 -15 -0.5 -32t-4.5 -39h-347zM289 393q-45 0 -74 -26t-29 -75h202q0 47 -27.5 74t-71.5 27z" />
    <glyph glyph-name="eacute" unicode="&#xe9;" horiz-adv-x="577" 
d="M168 509l-48 106l276 128l48 -106zM186 204q1 -22 6.5 -41.5t18 -34t32.5 -23t50 -8.5q40 0 60.5 16t28.5 39h150q-5 -34 -23.5 -64t-49 -52.5t-72 -35.5t-93.5 -13q-63 0 -111.5 18.5t-81.5 52.5t-50 80.5t-17 102.5q0 53 16.5 99t49 80.5t80 54.5t110.5 20
q57 0 102.5 -18t78 -48t50 -70t17.5 -84q0 -15 -0.5 -32t-4.5 -39h-347zM289 393q-45 0 -74 -26t-29 -75h202q0 47 -27.5 74t-71.5 27z" />
    <glyph glyph-name="ecircumflex" unicode="&#xea;" horiz-adv-x="577" 
d="M292 781l197 -164l-76 -84l-120 107l-120 -106l-76 83zM186 204q1 -22 6.5 -41.5t18 -34t32.5 -23t50 -8.5q40 0 60.5 16t28.5 39h150q-5 -34 -23.5 -64t-49 -52.5t-72 -35.5t-93.5 -13q-63 0 -111.5 18.5t-81.5 52.5t-50 80.5t-17 102.5q0 53 16.5 99t49 80.5t80 54.5
t110.5 20q57 0 102.5 -18t78 -48t50 -70t17.5 -84q0 -15 -0.5 -32t-4.5 -39h-347zM289 393q-45 0 -74 -26t-29 -75h202q0 47 -27.5 74t-71.5 27z" />
    <glyph glyph-name="edieresis" unicode="&#xeb;" horiz-adv-x="577" 
d="M73 630q0 39 27 66.5t67 27.5q20 0 37.5 -7.5t30 -20t20 -30t7.5 -36.5t-7.5 -36t-20 -29.5t-30 -20t-37.5 -7.5t-37 7.5t-30 20t-20 29.5t-7 36zM313 630q0 19 7.5 36.5t20 30t29.5 20t37 7.5t37.5 -7.5t30 -20t20 -30t7.5 -36.5t-7.5 -36t-20 -29.5t-30 -20t-37.5 -7.5
t-37 7.5t-29.5 20t-20 29.5t-7.5 36zM186 204q1 -22 6.5 -41.5t18 -34t32.5 -23t50 -8.5q40 0 60.5 16t28.5 39h150q-5 -34 -23.5 -64t-49 -52.5t-72 -35.5t-93.5 -13q-63 0 -111.5 18.5t-81.5 52.5t-50 80.5t-17 102.5q0 53 16.5 99t49 80.5t80 54.5t110.5 20
q57 0 102.5 -18t78 -48t50 -70t17.5 -84q0 -15 -0.5 -32t-4.5 -39h-347zM289 393q-45 0 -74 -26t-29 -75h202q0 47 -27.5 74t-71.5 27z" />
    <glyph glyph-name="igrave" unicode="&#xec;" horiz-adv-x="283" 
d="M-20 650l48 106l276 -128l-48 -106zM65 482h153v-482h-153v482z" />
    <glyph glyph-name="iacute" unicode="&#xed;" horiz-adv-x="283" 
d="M28 522l-48 106l276 128l48 -106zM65 482h153v-482h-153v482z" />
    <glyph glyph-name="icircumflex" unicode="&#xee;" horiz-adv-x="283" 
d="M142 781l196 -164l-76 -84l-120 107l-119 -106l-77 83zM65 482h153v-482h-153v482z" />
    <glyph glyph-name="idieresis" unicode="&#xef;" horiz-adv-x="283" 
d="M-54 630q0 19 7.5 36.5t20 30t29.5 20t37 7.5t37.5 -7.5t30.5 -20t20.5 -30t7.5 -36.5t-7.5 -36t-20.5 -29.5t-30.5 -20t-37.5 -7.5t-37 7.5t-29.5 20t-20 29.5t-7.5 36zM160 630q0 19 7.5 36.5t20 30t29.5 20t37 7.5t37.5 -7.5t30 -20t20 -30t7.5 -36.5t-7.5 -36
t-20 -29.5t-30 -20t-37.5 -7.5t-37 7.5t-29.5 20t-20 29.5t-7.5 36zM65 482h153v-482h-153v482z" />
    <glyph glyph-name="eth" unicode="&#xf0;" horiz-adv-x="596" 
d="M297 -15q-62 0 -111.5 20.5t-84 55t-53 80.5t-18.5 98q0 49 16.5 93t47 77.5t74.5 55t99 25.5h6l-33 51l-97 -47l-35 76l85 41l-67 106h182l27 -45l83 40l35 -74l-72 -36l141 -218q20 -32 31.5 -68.5t11.5 -76.5q0 -52 -18.5 -98t-53 -80.5t-84 -55t-112.5 -20.5z
M297 116q26 0 47.5 10t36.5 26.5t23.5 39t8.5 47.5t-8.5 47.5t-23.5 39.5t-36.5 26.5t-47.5 9.5t-47 -9.5t-36 -26.5t-23 -39.5t-8 -47.5t8 -47.5t23 -39t36 -26.5t47 -10z" />
    <glyph glyph-name="ntilde" unicode="&#xf1;" horiz-adv-x="607" 
d="M381 680q25 0 40.5 13t28.5 33l81 -71q-28 -44 -66 -63.5t-77 -19.5q-28 0 -49.5 7.5t-39 16t-33 16t-30.5 7.5q-25 0 -40 -13t-29 -33l-78 77q29 41 65 58.5t76 17.5q28 0 49 -7t38.5 -16t32.5 -16t31 -7zM65 482h153v-70q20 39 60.5 60.5t97.5 21.5q47 0 81 -14.5
t54 -40.5q23 -28 30.5 -64.5t7.5 -88.5v-286h-153v247q0 52 -18.5 84.5t-66.5 32.5q-47 0 -70 -33t-23 -89v-242h-153v482z" />
    <glyph glyph-name="ograve" unicode="&#xf2;" horiz-adv-x="599" 
d="M147 637l48 106l276 -128l-48 -106zM299 -13q-62 0 -111.5 20.5t-84 55t-53 80.5t-18.5 98t18.5 98t53 80.5t84 55t111.5 20.5q63 0 112.5 -20.5t84 -55t53 -80.5t18.5 -98t-18.5 -98t-53 -80.5t-84 -55t-112.5 -20.5zM299 118q26 0 47.5 9.5t36.5 26.5t23.5 39t8.5 48
q0 25 -8.5 47.5t-23.5 39t-36.5 26.5t-47.5 10t-47 -10t-36 -26.5t-23 -39t-8 -47.5q0 -26 8 -48t23 -39t36 -26.5t47 -9.5z" />
    <glyph glyph-name="oacute" unicode="&#xf3;" horiz-adv-x="599" 
d="M163 509l-49 106l276 128l49 -106zM299 -13q-62 0 -111.5 20.5t-84 55t-53 80.5t-18.5 98t18.5 98t53 80.5t84 55t111.5 20.5q63 0 112.5 -20.5t84 -55t53 -80.5t18.5 -98t-18.5 -98t-53 -80.5t-84 -55t-112.5 -20.5zM299 118q26 0 47.5 9.5t36.5 26.5t23.5 39t8.5 48
q0 25 -8.5 47.5t-23.5 39t-36.5 26.5t-47.5 10t-47 -10t-36 -26.5t-23 -39t-8 -47.5q0 -26 8 -48t23 -39t36 -26.5t47 -9.5z" />
    <glyph glyph-name="ocircumflex" unicode="&#xf4;" horiz-adv-x="599" 
d="M298 781l197 -164l-76 -84l-120 107l-119 -106l-77 83zM299 -13q-62 0 -111.5 20.5t-84 55t-53 80.5t-18.5 98t18.5 98t53 80.5t84 55t111.5 20.5q63 0 112.5 -20.5t84 -55t53 -80.5t18.5 -98t-18.5 -98t-53 -80.5t-84 -55t-112.5 -20.5zM299 118q26 0 47.5 9.5
t36.5 26.5t23.5 39t8.5 48q0 25 -8.5 47.5t-23.5 39t-36.5 26.5t-47.5 10t-47 -10t-36 -26.5t-23 -39t-8 -47.5q0 -26 8 -48t23 -39t36 -26.5t47 -9.5z" />
    <glyph glyph-name="otilde" unicode="&#xf5;" horiz-adv-x="599" 
d="M370 680q25 0 40.5 13t29.5 33l81 -71q-29 -44 -67 -63.5t-77 -19.5q-28 0 -49.5 7.5t-39 16t-33 16t-30.5 7.5q-25 0 -39.5 -13t-28.5 -33l-78 77q28 41 64.5 58.5t76.5 17.5q28 0 49 -7t38.5 -16t32.5 -16t30 -7zM299 -13q-62 0 -111.5 20.5t-84 55t-53 80.5t-18.5 98
t18.5 98t53 80.5t84 55t111.5 20.5q63 0 112.5 -20.5t84 -55t53 -80.5t18.5 -98t-18.5 -98t-53 -80.5t-84 -55t-112.5 -20.5zM299 118q26 0 47.5 9.5t36.5 26.5t23.5 39t8.5 48q0 25 -8.5 47.5t-23.5 39t-36.5 26.5t-47.5 10t-47 -10t-36 -26.5t-23 -39t-8 -47.5
q0 -26 8 -48t23 -39t36 -26.5t47 -9.5z" />
    <glyph glyph-name="odieresis" unicode="&#xf6;" horiz-adv-x="599" 
d="M418 537q-20 0 -37 7.5t-30 20t-20 29.5t-7 36q0 39 27 66.5t67 27.5q20 0 37.5 -7.5t30 -20t20 -30t7.5 -36.5t-7.5 -36t-20 -29.5t-30 -20t-37.5 -7.5zM177 537q-20 0 -37 7.5t-29.5 20t-20 29.5t-7.5 36t7.5 36.5t20 30t29.5 20t37 7.5t37.5 -7.5t30 -20t20 -30
t7.5 -36.5t-7.5 -36t-20 -29.5t-30 -20t-37.5 -7.5zM567 241q0 -52 -18.5 -98t-53 -80.5t-84 -55t-112.5 -20.5q-62 0 -111.5 20.5t-84 55t-53 80.5t-18.5 98t18.5 98t53 80.5t84 55t111.5 20.5q63 0 112.5 -20.5t84 -55t53 -80.5t18.5 -98zM185 241q0 -26 8 -48t23 -39
t36 -26.5t47 -9.5t47.5 9.5t36.5 26.5t23.5 39t8.5 48q0 25 -8.5 47.5t-23.5 39t-36.5 26.5t-47.5 10t-47 -10t-36 -26.5t-23 -39t-8 -47.5z" />
    <glyph glyph-name="divide" unicode="&#xf7;" 
d="M212 437q0 19 7.5 36.5t20 30t29.5 20t37 7.5t37.5 -7.5t30 -20t20 -30t7.5 -36.5t-7.5 -36t-20 -29.5t-30 -20t-37.5 -7.5t-37 7.5t-29.5 20t-20 29.5t-7.5 36zM93 190v122h427v-122h-427zM212 71q0 39 27.5 66t66.5 27q40 0 67.5 -27t27.5 -66q0 -19 -7.5 -36
t-20 -29.5t-30 -20t-37.5 -7.5t-37 7.5t-29.5 20t-20 29.5t-7.5 36z" />
    <glyph glyph-name="oslash" unicode="&#xf8;" horiz-adv-x="599" 
d="M185 241q0 -27 9 -51t26 -41l93 213q-4 1 -7 1.5t-7 0.5q-26 0 -47 -10t-36 -26.5t-23 -39t-8 -47.5zM299 118q26 0 47.5 9.5t36.5 26.5t23.5 39t8.5 48q0 29 -10.5 54t-30.5 42l-95 -218q5 -1 10 -1h10zM431 465q66 -32 101 -92t35 -132q0 -52 -18.5 -98t-53 -80.5
t-84 -55t-112.5 -20.5q-40 0 -76 9l-31 -74l-61 26l31 72q-63 32 -96.5 91t-33.5 130q0 52 18.5 98t53 80.5t84 55t111.5 20.5q19 0 36 -2.5t34 -5.5l32 74l60 -26z" />
    <glyph glyph-name="ugrave" unicode="&#xf9;" horiz-adv-x="607" 
d="M146 637l48 106l276 -128l-48 -106zM542 0h-153v69q-20 -38 -60.5 -59.5t-97.5 -21.5q-47 0 -81 14.5t-54 40.5q-23 28 -30 64.5t-7 88.5v286h152v-247q0 -52 18.5 -84.5t66.5 -32.5t70.5 33t22.5 89v242h153v-482z" />
    <glyph glyph-name="uacute" unicode="&#xfa;" horiz-adv-x="607" 
d="M190 509l-48 106l276 128l48 -106zM542 0h-153v69q-20 -38 -60.5 -59.5t-97.5 -21.5q-47 0 -81 14.5t-54 40.5q-23 28 -30 64.5t-7 88.5v286h152v-247q0 -52 18.5 -84.5t66.5 -32.5t70.5 33t22.5 89v242h153v-482z" />
    <glyph glyph-name="ucircumflex" unicode="&#xfb;" horiz-adv-x="607" 
d="M305 781l197 -164l-76 -84l-120 107l-119 -106l-77 83zM542 0h-153v69q-20 -38 -60.5 -59.5t-97.5 -21.5q-47 0 -81 14.5t-54 40.5q-23 28 -30 64.5t-7 88.5v286h152v-247q0 -52 18.5 -84.5t66.5 -32.5t70.5 33t22.5 89v242h153v-482z" />
    <glyph glyph-name="udieresis" unicode="&#xfc;" horiz-adv-x="607" 
d="M83 630q0 19 7.5 36.5t20 30t29.5 20t37 7.5t37.5 -7.5t30.5 -20t20.5 -30t7.5 -36.5t-7.5 -36t-20.5 -29.5t-30.5 -20t-37.5 -7.5t-37 7.5t-29.5 20t-20 29.5t-7.5 36zM324 630q0 39 27 66.5t67 27.5q20 0 37.5 -7.5t30 -20t20 -30t7.5 -36.5t-7.5 -36t-20 -29.5
t-30 -20t-37.5 -7.5t-37 7.5t-30 20t-20 29.5t-7 36zM542 0h-153v69q-20 -38 -60.5 -59.5t-97.5 -21.5q-47 0 -81 14.5t-54 40.5q-23 28 -30 64.5t-7 88.5v286h152v-247q0 -52 18.5 -84.5t66.5 -32.5t70.5 33t22.5 89v242h153v-482z" />
    <glyph glyph-name="yacute" unicode="&#xfd;" horiz-adv-x="615" 
d="M194 509l-49 106l276 128l49 -106zM303 -231q-59 0 -102.5 12t-75.5 38q-29 23 -47.5 59t-18.5 85h153q2 -41 28.5 -62.5t64.5 -21.5q44 0 69 21.5t25 77.5v99q-20 -39 -59.5 -60t-94.5 -21q-48 0 -83.5 16t-55.5 42q-23 28 -30 62.5t-7 86.5v279h152v-247
q0 -52 18.5 -84.5t66.5 -32.5t70.5 33t22.5 89v242h153v-494q0 -57 -18 -99t-48 -68q-33 -27 -76.5 -39.5t-106.5 -12.5z" />
    <glyph glyph-name="thorn" unicode="&#xfe;" horiz-adv-x="632" 
d="M335 118q26 0 47 10t36 26.5t23.5 39t8.5 47.5t-8.5 47t-23.5 39t-36 27t-47 10t-47 -10t-36 -27t-23.5 -39t-8.5 -47t8.5 -47.5t23.5 -39t36 -26.5t47 -10zM67 -218v918h153v-287q9 16 24 31t34.5 26t42.5 17.5t46 6.5q52 0 95.5 -19.5t74.5 -53t48 -80t17 -100.5
t-17 -100.5t-48 -80t-74.5 -53t-95.5 -19.5q-23 0 -46 6.5t-42.5 17t-34.5 25t-24 31.5v-286h-153z" />
    <glyph glyph-name="ydieresis" unicode="&#xff;" horiz-adv-x="615" 
d="M101 630q0 19 7 35.5t19.5 29t29 19.5t35.5 7q40 0 66.5 -26.5t26.5 -64.5t-26.5 -64.5t-66.5 -26.5q-19 0 -35.5 7t-29 19.5t-19.5 29t-7 35.5zM342 630q0 19 7 35.5t19.5 29t29 19.5t35.5 7t36 -7t29.5 -19.5t19.5 -29t7 -35.5t-7 -35.5t-19.5 -29t-29.5 -19.5t-36 -7
t-35.5 7t-29 19.5t-19.5 29t-7 35.5zM303 -231q-59 0 -102.5 12t-75.5 38q-29 23 -47.5 59t-18.5 85h153q2 -41 28.5 -62.5t64.5 -21.5q44 0 69 21.5t25 77.5v99q-20 -39 -59.5 -60t-94.5 -21q-48 0 -83.5 16t-55.5 42q-23 28 -30 62.5t-7 86.5v279h152v-247
q0 -52 18.5 -84.5t66.5 -32.5t70.5 33t22.5 89v242h153v-494q0 -57 -18 -99t-48 -68q-33 -27 -76.5 -39.5t-106.5 -12.5z" />
    <glyph glyph-name="Amacron" unicode="&#x100;" horiz-adv-x="660" 
d="M512 794h-368v115h368v-115zM243 212h170l-84 288zM656 0h-176l-27 85h-249l-27 -85h-173l250 700h149z" />
    <glyph glyph-name="amacron" unicode="&#x101;" horiz-adv-x="635" 
d="M491 573h-368v114h368v-114zM302 118q26 0 47 10t36 26.5t23.5 39t8.5 47.5t-8.5 47t-23.5 39t-36 27t-47 10t-47 -10t-36 -27t-23.5 -39t-8.5 -47t8.5 -47.5t23.5 -39t36 -26.5t47 -10zM570 482v-482h-153v68q-9 -17 -24 -31.5t-34.5 -25t-42.5 -17t-46 -6.5
q-52 0 -95.5 19.5t-74.5 53t-48 80t-17 100.5t17 100.5t48 80t74.5 53t95.5 19.5q23 0 46 -6.5t42.5 -17.5t34.5 -26t24 -31v69h153z" />
    <glyph glyph-name="Abreve" unicode="&#x102;" horiz-adv-x="660" 
d="M329 868q38 0 60.5 20.5t30.5 51.5h123q-6 -39 -25 -71t-47.5 -54.5t-65 -34.5t-76.5 -12q-41 0 -77.5 12t-65 34.5t-47 54.5t-24.5 71h122q9 -31 31.5 -51.5t60.5 -20.5zM243 212h170l-84 288zM656 0h-176l-27 85h-249l-27 -85h-173l250 700h149z" />
    <glyph glyph-name="abreve" unicode="&#x103;" horiz-adv-x="635" 
d="M309 652q38 0 60.5 20.5t31.5 51.5h122q-6 -39 -25 -71t-47.5 -54.5t-65 -34.5t-76.5 -12q-41 0 -77.5 12t-64.5 34.5t-47 54.5t-25 71h123q8 -31 30.5 -51.5t60.5 -20.5zM302 118q26 0 47 10t36 26.5t23.5 39t8.5 47.5t-8.5 47t-23.5 39t-36 27t-47 10t-47 -10t-36 -27
t-23.5 -39t-8.5 -47t8.5 -47.5t23.5 -39t36 -26.5t47 -10zM570 482v-482h-153v68q-9 -17 -24 -31.5t-34.5 -25t-42.5 -17t-46 -6.5q-52 0 -95.5 19.5t-74.5 53t-48 80t-17 100.5t17 100.5t48 80t74.5 53t95.5 19.5q23 0 46 -6.5t42.5 -17.5t34.5 -26t24 -31v69h153z" />
    <glyph glyph-name="Aogonek" unicode="&#x104;" horiz-adv-x="660" 
d="M618 -197q-20 -7 -43 -11t-52 -4q-65 0 -95.5 28.5t-30.5 68.5q0 32 21.5 60.5t61.5 54.5l-27 85h-249l-27 -85h-173l250 700h149l253 -700h-82q-10 -7 -20 -14.5t-18 -16.5t-13 -20.5t-5 -26.5q0 -21 12 -37t34 -16q12 0 27 3t29 9zM243 212h170l-84 288z" />
    <glyph glyph-name="aogonek" unicode="&#x105;" horiz-adv-x="635" 
d="M570 0h-55q-23 -14 -43 -34t-20 -51q0 -18 11.5 -32t31.5 -14q12 0 27 3t29 9l-2 -78q-20 -7 -43 -11t-52 -4q-66 0 -97.5 28.5t-31.5 68.5q0 33 23 61t69 57v65q-9 -17 -24 -31.5t-34.5 -25t-42.5 -17t-46 -6.5q-52 0 -95.5 19.5t-74.5 53t-48 80t-17 100.5t17 100.5
t48 80t74.5 53t95.5 19.5q23 0 46 -6.5t42.5 -17.5t34.5 -26t24 -31v69h153v-482zM302 118q26 0 47 10t36 26.5t23.5 39t8.5 47.5t-8.5 47t-23.5 39t-36 27t-47 10t-47 -10t-36 -27t-23.5 -39t-8.5 -47t8.5 -47.5t23.5 -39t36 -26.5t47 -10z" />
    <glyph glyph-name="Cacute" unicode="&#x106;" horiz-adv-x="788" 
d="M280 740l-48 105l276 128l48 -105zM757 251q-10 -56 -38.5 -105t-73.5 -85.5t-105 -57.5t-132 -21q-89 0 -158.5 30t-118 80.5t-74 117.5t-25.5 141q0 72 25 138t72.5 117t115.5 81.5t154 30.5q81 0 144.5 -23t108 -62t70.5 -92t34 -113h-169q-6 31 -20.5 57t-37 45.5
t-53 30.5t-67.5 11q-51 0 -90.5 -18.5t-66.5 -49t-41 -70.5t-14 -83q0 -46 14.5 -86.5t43 -71t69 -48t93.5 -17.5q30 0 57 9.5t49.5 26t38.5 39t23 48.5h172z" />
    <glyph glyph-name="cacute" unicode="&#x107;" horiz-adv-x="575" 
d="M173 509l-48 106l276 128l48 -106zM388 293q-5 32 -26.5 52t-68.5 20q-27 0 -47.5 -10t-33.5 -27t-19.5 -39.5t-6.5 -47.5t6.5 -47.5t20 -39.5t35 -27t51.5 -10q40 0 60 16.5t30 47.5h153q-6 -41 -24 -76.5t-49 -61.5t-75.5 -41t-101.5 -15q-63 0 -111.5 21t-81.5 56
t-49.5 81t-16.5 96t16.5 96t49.5 81t81.5 56t111.5 21q61 0 106 -17t75.5 -45t47 -64.5t20.5 -75.5h-153z" />
    <glyph glyph-name="Ccircumflex" unicode="&#x108;" horiz-adv-x="788" 
d="M400 993l197 -164l-76 -84l-120 107l-119 -106l-77 83zM757 251q-10 -56 -38.5 -105t-73.5 -85.5t-105 -57.5t-132 -21q-89 0 -158.5 30t-118 80.5t-74 117.5t-25.5 141q0 72 25 138t72.5 117t115.5 81.5t154 30.5q81 0 144.5 -23t108 -62t70.5 -92t34 -113h-169
q-6 31 -20.5 57t-37 45.5t-53 30.5t-67.5 11q-51 0 -90.5 -18.5t-66.5 -49t-41 -70.5t-14 -83q0 -46 14.5 -86.5t43 -71t69 -48t93.5 -17.5q30 0 57 9.5t49.5 26t38.5 39t23 48.5h172z" />
    <glyph glyph-name="ccircumflex" unicode="&#x109;" horiz-adv-x="575" 
d="M298 781l197 -164l-76 -84l-120 107l-120 -106l-76 83zM388 293q-5 32 -26.5 52t-68.5 20q-27 0 -47.5 -10t-33.5 -27t-19.5 -39.5t-6.5 -47.5t6.5 -47.5t20 -39.5t35 -27t51.5 -10q40 0 60 16.5t30 47.5h153q-6 -41 -24 -76.5t-49 -61.5t-75.5 -41t-101.5 -15
q-63 0 -111.5 21t-81.5 56t-49.5 81t-16.5 96t16.5 96t49.5 81t81.5 56t111.5 21q61 0 106 -17t75.5 -45t47 -64.5t20.5 -75.5h-153z" />
    <glyph glyph-name="Cdotaccent" unicode="&#x10a;" horiz-adv-x="788" 
d="M305 860q0 19 7 36.5t20 30.5t30 20.5t37 7.5t37.5 -7.5t30 -20.5t20 -30.5t7.5 -36.5t-7.5 -36t-20 -29.5t-30 -20t-37.5 -7.5t-37 7.5t-30 20t-20 29.5t-7 36zM757 251q-10 -56 -38.5 -105t-73.5 -85.5t-105 -57.5t-132 -21q-89 0 -158.5 30t-118 80.5t-74 117.5
t-25.5 141q0 72 25 138t72.5 117t115.5 81.5t154 30.5q81 0 144.5 -23t108 -62t70.5 -92t34 -113h-169q-6 31 -20.5 57t-37 45.5t-53 30.5t-67.5 11q-51 0 -90.5 -18.5t-66.5 -49t-41 -70.5t-14 -83q0 -46 14.5 -86.5t43 -71t69 -48t93.5 -17.5q30 0 57 9.5t49.5 26t38.5 39
t23 48.5h172z" />
    <glyph glyph-name="cdotaccent" unicode="&#x10b;" horiz-adv-x="575" 
d="M197 629q0 19 7.5 36.5t20 30t29.5 20t37 7.5t37.5 -7.5t30.5 -20t20.5 -30t7.5 -36.5t-7.5 -36t-20.5 -29.5t-30.5 -20t-37.5 -7.5t-37 7.5t-29.5 20t-20 29.5t-7.5 36zM388 293q-5 32 -26.5 52t-68.5 20q-27 0 -47.5 -10t-33.5 -27t-19.5 -39.5t-6.5 -47.5t6.5 -47.5
t20 -39.5t35 -27t51.5 -10q40 0 60 16.5t30 47.5h153q-6 -41 -24 -76.5t-49 -61.5t-75.5 -41t-101.5 -15q-63 0 -111.5 21t-81.5 56t-49.5 81t-16.5 96t16.5 96t49.5 81t81.5 56t111.5 21q61 0 106 -17t75.5 -45t47 -64.5t20.5 -75.5h-153z" />
    <glyph glyph-name="Ccaron" unicode="&#x10c;" horiz-adv-x="788" 
d="M197 907l77 83l119 -108l120 108l76 -83l-196 -165zM757 251q-10 -56 -38.5 -105t-73.5 -85.5t-105 -57.5t-132 -21q-89 0 -158.5 30t-118 80.5t-74 117.5t-25.5 141q0 72 25 138t72.5 117t115.5 81.5t154 30.5q81 0 144.5 -23t108 -62t70.5 -92t34 -113h-169
q-6 31 -20.5 57t-37 45.5t-53 30.5t-67.5 11q-51 0 -90.5 -18.5t-66.5 -49t-41 -70.5t-14 -83q0 -46 14.5 -86.5t43 -71t69 -48t93.5 -17.5q30 0 57 9.5t49.5 26t38.5 39t23 48.5h172z" />
    <glyph glyph-name="ccaron" unicode="&#x10d;" horiz-adv-x="575" 
d="M97 691l77 82l119 -108l120 109l76 -83l-197 -165zM388 293q-5 32 -26.5 52t-68.5 20q-27 0 -47.5 -10t-33.5 -27t-19.5 -39.5t-6.5 -47.5t6.5 -47.5t20 -39.5t35 -27t51.5 -10q40 0 60 16.5t30 47.5h153q-6 -41 -24 -76.5t-49 -61.5t-75.5 -41t-101.5 -15
q-63 0 -111.5 21t-81.5 56t-49.5 81t-16.5 96t16.5 96t49.5 81t81.5 56t111.5 21q61 0 106 -17t75.5 -45t47 -64.5t20.5 -75.5h-153z" />
    <glyph glyph-name="Dcaron" unicode="&#x10e;" horiz-adv-x="720" 
d="M141 907l77 83l119 -108l120 108l76 -83l-196 -165zM324 700q87 0 154.5 -29.5t114 -78.5t71 -112t24.5 -130t-24 -130t-70.5 -112t-114.5 -78.5t-155 -29.5h-257v700h257zM229 560v-420h87q49 0 87.5 17.5t65 47t40.5 67t14 78.5q0 40 -14 78t-40.5 67.5t-65 47
t-87.5 17.5h-87z" />
    <glyph glyph-name="dcaron" unicode="&#x10f;" horiz-adv-x="810" 
d="M615 641q0 41 27.5 69t67.5 28q48 0 77.5 -34t29.5 -88t-13.5 -92t-38.5 -61t-62 -34t-83 -11v59q30 0 51 7t34 18q14 11 21 25t9 28q-2 -2 -9.5 -4.5t-15.5 -2.5q-44 0 -69.5 27.5t-25.5 65.5zM302 118q26 0 47 10t36 26.5t23.5 39t8.5 47.5t-8.5 47t-23.5 39t-36 27
t-47 10t-47 -10t-36 -27t-23.5 -39t-8.5 -47t8.5 -47.5t23.5 -39t36 -26.5t47 -10zM417 700h153v-700h-153v68q-9 -17 -24 -31.5t-34.5 -25t-42.5 -17t-46 -6.5q-52 0 -95.5 19.5t-74.5 53t-48 80t-17 100.5t17 100.5t48 80t74.5 53t95.5 19.5q23 0 46 -6.5t42.5 -17.5
t34.5 -26t24 -31v287z" />
    <glyph glyph-name="Dcroat" unicode="&#x110;" horiz-adv-x="720" 
d="M324 700q87 0 154.5 -29.5t114 -78.5t71 -112t24.5 -130t-24 -130t-70.5 -112t-114.5 -78.5t-155 -29.5h-257v301h-101v98h101v301h257zM334 301h-105v-161h87q49 0 87.5 17.5t65 47t40.5 67t14 78.5q0 40 -14 78t-40.5 67.5t-65 47t-87.5 17.5h-87v-161h105v-98z" />
    <glyph glyph-name="dcroat" unicode="&#x111;" horiz-adv-x="635" 
d="M302 118q26 0 47 10t36 26.5t23.5 39t8.5 47.5t-8.5 47t-23.5 39t-36 27t-47 10t-47 -10t-36 -27t-23.5 -39t-8.5 -47t8.5 -47.5t23.5 -39t36 -26.5t47 -10zM615 533h-45v-533h-153v68q-9 -17 -24 -31.5t-34.5 -25t-42.5 -17t-46 -6.5q-52 0 -95.5 19.5t-74.5 53t-48 80
t-17 100.5t17 100.5t48 80t74.5 53t95.5 19.5q23 0 46 -6.5t42.5 -17.5t34.5 -26t24 -31v120h-107v82h107v85h153v-85h45v-82z" />
    <glyph glyph-name="Emacron" unicode="&#x112;" horiz-adv-x="555" 
d="M466 794h-368v115h368v-115zM229 570v-159h265v-127h-265v-154h265v-130h-427v700h427v-130h-265z" />
    <glyph glyph-name="emacron" unicode="&#x113;" horiz-adv-x="577" 
d="M479 573h-368v114h368v-114zM186 204q1 -22 6.5 -41.5t18 -34t32.5 -23t50 -8.5q40 0 60.5 16t28.5 39h150q-5 -34 -23.5 -64t-49 -52.5t-72 -35.5t-93.5 -13q-63 0 -111.5 18.5t-81.5 52.5t-50 80.5t-17 102.5q0 53 16.5 99t49 80.5t80 54.5t110.5 20q57 0 102.5 -18
t78 -48t50 -70t17.5 -84q0 -15 -0.5 -32t-4.5 -39h-347zM289 393q-45 0 -74 -26t-29 -75h202q0 47 -27.5 74t-71.5 27z" />
    <glyph glyph-name="Ebreve" unicode="&#x114;" horiz-adv-x="555" 
d="M283 868q38 0 60.5 20.5t30.5 51.5h123q-6 -39 -25 -71t-47.5 -54.5t-65 -34.5t-76.5 -12q-41 0 -77.5 12t-65 34.5t-47 54.5t-24.5 71h122q9 -31 31.5 -51.5t60.5 -20.5zM229 570v-159h265v-127h-265v-154h265v-130h-427v700h427v-130h-265z" />
    <glyph glyph-name="ebreve" unicode="&#x115;" horiz-adv-x="577" 
d="M291 652q38 0 60.5 20.5t30.5 51.5h123q-6 -39 -25 -71t-47.5 -54.5t-65 -34.5t-76.5 -12q-41 0 -77.5 12t-65 34.5t-47 54.5t-24.5 71h123q8 -31 30.5 -51.5t60.5 -20.5zM186 204q1 -22 6.5 -41.5t18 -34t32.5 -23t50 -8.5q40 0 60.5 16t28.5 39h150q-5 -34 -23.5 -64
t-49 -52.5t-72 -35.5t-93.5 -13q-63 0 -111.5 18.5t-81.5 52.5t-50 80.5t-17 102.5q0 53 16.5 99t49 80.5t80 54.5t110.5 20q57 0 102.5 -18t78 -48t50 -70t17.5 -84q0 -15 -0.5 -32t-4.5 -39h-347zM289 393q-45 0 -74 -26t-29 -75h202q0 47 -27.5 74t-71.5 27z" />
    <glyph glyph-name="Edotaccent" unicode="&#x116;" horiz-adv-x="555" 
d="M183 860q0 19 7 36.5t20 30.5t30 20.5t37 7.5t37.5 -7.5t30 -20.5t20 -30.5t7.5 -36.5t-7.5 -36t-20 -29.5t-30 -20t-37.5 -7.5t-37 7.5t-30 20t-20 29.5t-7 36zM229 570v-159h265v-127h-265v-154h265v-130h-427v700h427v-130h-265z" />
    <glyph glyph-name="edotaccent" unicode="&#x117;" horiz-adv-x="577" 
d="M194 629q0 39 27 66.5t67 27.5q20 0 37.5 -7.5t30 -20t20 -30t7.5 -36.5t-7.5 -36t-20 -29.5t-30 -20t-37.5 -7.5t-37 7.5t-30 20t-20 29.5t-7 36zM186 204q1 -22 6.5 -41.5t18 -34t32.5 -23t50 -8.5q40 0 60.5 16t28.5 39h150q-5 -34 -23.5 -64t-49 -52.5t-72 -35.5
t-93.5 -13q-63 0 -111.5 18.5t-81.5 52.5t-50 80.5t-17 102.5q0 53 16.5 99t49 80.5t80 54.5t110.5 20q57 0 102.5 -18t78 -48t50 -70t17.5 -84q0 -15 -0.5 -32t-4.5 -39h-347zM289 393q-45 0 -74 -26t-29 -75h202q0 47 -27.5 74t-71.5 27z" />
    <glyph glyph-name="Eogonek" unicode="&#x118;" horiz-adv-x="555" 
d="M67 0v700h427v-130h-265v-159h265v-127h-265v-154h265v-130h-46q-10 -7 -20 -14.5t-18 -16.5t-13 -20.5t-5 -26.5q0 -21 12 -37t34 -16q12 0 27 3t29 9l-2 -78q-20 -7 -43 -11t-52 -4q-65 0 -95.5 28.5t-30.5 68.5q0 32 19.5 59t59.5 56h-283z" />
    <glyph glyph-name="eogonek" unicode="&#x119;" horiz-adv-x="577" 
d="M395 -197q-20 -7 -43 -11t-52 -4q-64 0 -94.5 28.5t-30.5 68.5q0 30 16 55t50 51q-51 8 -89.5 30t-64.5 55t-39.5 75t-13.5 90q0 53 16.5 99t49 80.5t80 54.5t110.5 20q57 0 102.5 -18t78 -48t50 -70t17.5 -84q0 -15 -0.5 -32t-4.5 -39h-345q0 -22 5.5 -41.5t18 -34
t32.5 -23t49 -8.5q40 0 60.5 16t28.5 39h150q-11 -61 -61 -106.5t-135 -55.5q-16 -12 -28.5 -28t-12.5 -40q0 -21 12 -37t34 -16q12 0 27 3t29 9zM289 393q-45 0 -74 -26t-29 -75h202q0 47 -27.5 74t-71.5 27z" />
    <glyph glyph-name="Ecaron" unicode="&#x11a;" horiz-adv-x="555" 
d="M81 907l76 83l120 -108l120 108l76 -83l-197 -165zM229 570v-159h265v-127h-265v-154h265v-130h-427v700h427v-130h-265z" />
    <glyph glyph-name="ecaron" unicode="&#x11b;" horiz-adv-x="577" 
d="M95 691l77 82l119 -108l120 109l76 -83l-197 -165zM186 204q1 -22 6.5 -41.5t18 -34t32.5 -23t50 -8.5q40 0 60.5 16t28.5 39h150q-5 -34 -23.5 -64t-49 -52.5t-72 -35.5t-93.5 -13q-63 0 -111.5 18.5t-81.5 52.5t-50 80.5t-17 102.5q0 53 16.5 99t49 80.5t80 54.5
t110.5 20q57 0 102.5 -18t78 -48t50 -70t17.5 -84q0 -15 -0.5 -32t-4.5 -39h-347zM289 393q-45 0 -74 -26t-29 -75h202q0 47 -27.5 74t-71.5 27z" />
    <glyph glyph-name="Gcircumflex" unicode="&#x11c;" horiz-adv-x="835" 
d="M403 993l197 -164l-76 -84l-120 107l-119 -106l-77 83zM455 370h363v-121h-72q-11 -60 -38 -109t-71 -84t-103.5 -54.5t-134.5 -19.5q-88 0 -156.5 30t-115 80.5t-71 117t-24.5 140.5q0 72 25 138.5t72.5 117.5t115.5 81.5t154 30.5q69 0 126.5 -19.5t99.5 -53t67 -78
t30 -94.5h-173q-4 21 -16 40t-31.5 33.5t-45.5 23t-57 8.5q-48 0 -85.5 -19t-63 -51t-39 -73.5t-13.5 -85.5q0 -47 13 -88.5t39.5 -73t67 -50t94.5 -18.5q37 0 66 10.5t50 28.5t34 41.5t17 49.5h-124v121z" />
    <glyph glyph-name="gcircumflex" unicode="&#x11d;" horiz-adv-x="633" 
d="M305 781l197 -164l-76 -84l-120 107l-119 -106l-77 83zM302 364q-26 0 -47 -10t-36 -27t-23 -39t-8 -47t8 -47.5t23 -39t36 -26.5t47 -10t47.5 10t36.5 26.5t23.5 39t8.5 47.5t-8.5 47t-23.5 39t-36.5 27t-47.5 10zM571 3q0 -66 -19 -110t-56 -72q-35 -26 -82 -39
t-114 -13q-68 0 -113.5 15t-75.5 41q-32 26 -50 62t-20 76h153q3 -31 29.5 -56t76.5 -25q54 0 86 26t32 83v81q-20 -33 -60 -54t-87 -21q-52 0 -95.5 18t-74.5 50.5t-48.5 77t-17.5 98.5t16.5 100.5t47.5 80t74 53t96 19.5q46 0 87.5 -21.5t61.5 -59.5v69h153v-479z" />
    <glyph glyph-name="Gbreve" unicode="&#x11e;" horiz-adv-x="835" 
d="M403 868q38 0 60.5 20.5t31.5 51.5h122q-6 -39 -25 -71t-47.5 -54.5t-65 -34.5t-76.5 -12q-41 0 -77.5 12t-64.5 34.5t-47 54.5t-25 71h123q8 -31 30.5 -51.5t60.5 -20.5zM455 370h363v-121h-72q-11 -60 -38 -109t-71 -84t-103.5 -54.5t-134.5 -19.5q-88 0 -156.5 30
t-115 80.5t-71 117t-24.5 140.5q0 72 25 138.5t72.5 117.5t115.5 81.5t154 30.5q69 0 126.5 -19.5t99.5 -53t67 -78t30 -94.5h-173q-4 21 -16 40t-31.5 33.5t-45.5 23t-57 8.5q-48 0 -85.5 -19t-63 -51t-39 -73.5t-13.5 -85.5q0 -47 13 -88.5t39.5 -73t67 -50t94.5 -18.5
q37 0 66 10.5t50 28.5t34 41.5t17 49.5h-124v121z" />
    <glyph glyph-name="gbreve" unicode="&#x11f;" horiz-adv-x="633" 
d="M309 652q38 0 60.5 20.5t31.5 51.5h122q-6 -39 -25 -71t-47.5 -54.5t-65 -34.5t-76.5 -12q-41 0 -77.5 12t-64.5 34.5t-47 54.5t-25 71h123q8 -31 30.5 -51.5t60.5 -20.5zM302 364q-26 0 -47 -10t-36 -27t-23 -39t-8 -47t8 -47.5t23 -39t36 -26.5t47 -10t47.5 10
t36.5 26.5t23.5 39t8.5 47.5t-8.5 47t-23.5 39t-36.5 27t-47.5 10zM571 3q0 -66 -19 -110t-56 -72q-35 -26 -82 -39t-114 -13q-68 0 -113.5 15t-75.5 41q-32 26 -50 62t-20 76h153q3 -31 29.5 -56t76.5 -25q54 0 86 26t32 83v81q-20 -33 -60 -54t-87 -21q-52 0 -95.5 18
t-74.5 50.5t-48.5 77t-17.5 98.5t16.5 100.5t47.5 80t74 53t96 19.5q46 0 87.5 -21.5t61.5 -59.5v69h153v-479z" />
    <glyph glyph-name="Gdotaccent" unicode="&#x120;" horiz-adv-x="835" 
d="M305 860q0 19 7 36.5t20 30.5t30 20.5t37 7.5t37.5 -7.5t30 -20.5t20 -30.5t7.5 -36.5t-7.5 -36t-20 -29.5t-30 -20t-37.5 -7.5t-37 7.5t-30 20t-20 29.5t-7 36zM455 370h363v-121h-72q-11 -60 -38 -109t-71 -84t-103.5 -54.5t-134.5 -19.5q-88 0 -156.5 30t-115 80.5
t-71 117t-24.5 140.5q0 72 25 138.5t72.5 117.5t115.5 81.5t154 30.5q69 0 126.5 -19.5t99.5 -53t67 -78t30 -94.5h-173q-4 21 -16 40t-31.5 33.5t-45.5 23t-57 8.5q-48 0 -85.5 -19t-63 -51t-39 -73.5t-13.5 -85.5q0 -47 13 -88.5t39.5 -73t67 -50t94.5 -18.5q37 0 66 10.5
t50 28.5t34 41.5t17 49.5h-124v121z" />
    <glyph glyph-name="gdotaccent" unicode="&#x121;" horiz-adv-x="633" 
d="M199 628q0 19 7.5 36.5t20 30.5t29.5 20.5t37 7.5t37.5 -7.5t30.5 -20.5t20.5 -30.5t7.5 -36.5q0 -38 -27.5 -65.5t-68.5 -27.5q-20 0 -37 7.5t-29.5 20t-20 29.5t-7.5 36zM302 364q-26 0 -47 -10t-36 -27t-23 -39t-8 -47t8 -47.5t23 -39t36 -26.5t47 -10t47.5 10
t36.5 26.5t23.5 39t8.5 47.5t-8.5 47t-23.5 39t-36.5 27t-47.5 10zM571 3q0 -66 -19 -110t-56 -72q-35 -26 -82 -39t-114 -13q-68 0 -113.5 15t-75.5 41q-32 26 -50 62t-20 76h153q3 -31 29.5 -56t76.5 -25q54 0 86 26t32 83v81q-20 -33 -60 -54t-87 -21q-52 0 -95.5 18
t-74.5 50.5t-48.5 77t-17.5 98.5t16.5 100.5t47.5 80t74 53t96 19.5q46 0 87.5 -21.5t61.5 -59.5v69h153v-479z" />
    <glyph glyph-name="Gcommaaccent" unicode="&#x122;" horiz-adv-x="835" 
d="M455 370h363v-121h-72q-11 -60 -38 -109t-71 -84t-103.5 -54.5t-134.5 -19.5q-88 0 -156.5 30t-115 80.5t-71 117t-24.5 140.5q0 72 25 138.5t72.5 117.5t115.5 81.5t154 30.5q69 0 126.5 -19.5t99.5 -53t67 -78t30 -94.5h-173q-4 21 -16 40t-31.5 33.5t-45.5 23t-57 8.5
q-48 0 -85.5 -19t-63 -51t-39 -73.5t-13.5 -85.5q0 -47 13 -88.5t39.5 -73t67 -50t94.5 -18.5q37 0 66 10.5t50 28.5t34 41.5t17 49.5h-124v121zM325 -103q0 32 22 54.5t54 22.5q38 0 62 -27.5t24 -70.5q0 -44 -11 -74t-31 -48.5t-49.5 -27.5t-66.5 -9v48q25 0 41.5 5.5
t27.5 14.5q11 8 16.5 19.5t6.5 22.5q-2 -2 -8 -4t-12 -2q-35 0 -55.5 22t-20.5 54z" />
    <glyph glyph-name="gcommaaccent" unicode="&#x123;" horiz-adv-x="633" 
d="M386 626q0 -38 -26 -64.5t-63 -26.5q-46 0 -73.5 32t-27.5 83t12.5 86.5t36 57.5t58 32t78.5 10v-56q-54 0 -80 -23q-14 -11 -20 -23.5t-8 -26.5q2 2 9 4.5t15 2.5q41 0 65 -26t24 -62zM302 364q-26 0 -47 -10t-36 -27t-23 -39t-8 -47t8 -47.5t23 -39t36 -26.5t47 -10
t47.5 10t36.5 26.5t23.5 39t8.5 47.5t-8.5 47t-23.5 39t-36.5 27t-47.5 10zM571 3q0 -66 -19 -110t-56 -72q-35 -26 -82 -39t-114 -13q-68 0 -113.5 15t-75.5 41q-32 26 -50 62t-20 76h153q3 -31 29.5 -56t76.5 -25q54 0 86 26t32 83v81q-20 -33 -60 -54t-87 -21
q-52 0 -95.5 18t-74.5 50.5t-48.5 77t-17.5 98.5t16.5 100.5t47.5 80t74 53t96 19.5q46 0 87.5 -21.5t61.5 -59.5v69h153v-479z" />
    <glyph glyph-name="Hcircumflex" unicode="&#x124;" horiz-adv-x="699" 
d="M350 993l196 -164l-76 -84l-120 107l-119 -106l-77 83zM471 278h-242v-278h-162v700h162v-283h242v283h161v-700h-161v278z" />
    <glyph glyph-name="hcircumflex" unicode="&#x125;" horiz-adv-x="597" 
d="M299 984l197 -164l-76 -84l-120 107l-120 -106l-76 83zM65 700h148v-288q20 38 60 60t96 22q47 0 79 -14.5t52 -40.5q23 -28 31 -65t8 -89v-285h-148v247q0 52 -18.5 84.5t-66.5 32.5q-47 0 -70 -33t-23 -89v-242h-148v700z" />
    <glyph glyph-name="Hbar" unicode="&#x126;" horiz-adv-x="699" 
d="M471 506h-242v-89h242v89zM229 700v-106h242v106h161v-700h-161v278h-242v-278h-162v700h162z" />
    <glyph glyph-name="hbar" unicode="&#x127;" horiz-adv-x="597" 
d="M347 533h-134v-121q20 38 60 60t96 22q47 0 79 -14.5t52 -40.5q23 -28 31 -65t8 -89v-285h-148v247q0 52 -18.5 84.5t-66.5 32.5q-47 0 -70 -33t-23 -89v-242h-148v533h-66v82h66v85h148v-85h134v-82z" />
    <glyph glyph-name="Itilde" unicode="&#x128;" horiz-adv-x="298" 
d="M219 884q25 0 40.5 13.5t28.5 32.5l81 -70q-28 -45 -66 -64t-77 -19q-28 0 -49.5 7.5t-39 16t-33 16t-30.5 7.5q-25 0 -40 -13t-29 -33l-78 77q29 41 65 58.5t76 17.5q28 0 49 -7.5t38.5 -16t32.5 -16t31 -7.5zM67 700h164v-700h-164v700z" />
    <glyph glyph-name="itilde" unicode="&#x129;" horiz-adv-x="283" 
d="M212 680q25 0 40.5 13t29.5 33l80 -71q-28 -44 -66 -63.5t-77 -19.5q-28 0 -49.5 7.5t-39 16t-33 16t-30.5 7.5q-25 0 -39.5 -13t-28.5 -33l-78 77q28 41 64.5 58.5t75.5 17.5q28 0 49 -7t38.5 -16t32.5 -16t31 -7zM65 482h153v-482h-153v482z" />
    <glyph glyph-name="Imacron" unicode="&#x12a;" horiz-adv-x="298" 
d="M334 794h-368v115h368v-115zM67 700h164v-700h-164v700z" />
    <glyph glyph-name="imacron" unicode="&#x12b;" horiz-adv-x="283" 
d="M325 572h-368v115h368v-115zM65 482h153v-482h-153v482z" />
    <glyph glyph-name="Ibreve" unicode="&#x12c;" horiz-adv-x="298" 
d="M150 868q38 0 60.5 20.5t30.5 51.5h123q-6 -39 -25 -71t-47.5 -54.5t-65 -34.5t-76.5 -12q-41 0 -77.5 12t-65 34.5t-47 54.5t-24.5 71h122q9 -31 31.5 -51.5t60.5 -20.5zM67 700h164v-700h-164v700z" />
    <glyph glyph-name="ibreve" unicode="&#x12d;" horiz-adv-x="283" 
d="M143 652q38 0 60.5 20.5t30.5 51.5h123q-6 -39 -25 -71t-47.5 -54.5t-65 -34.5t-76.5 -12q-41 0 -77.5 12t-65 34.5t-47 54.5t-24.5 71h122q9 -31 31.5 -51.5t60.5 -20.5zM65 482h153v-482h-153v482z" />
    <glyph glyph-name="Iogonek" unicode="&#x12e;" horiz-adv-x="298" 
d="M231 0h-28q-10 -7 -20 -14.5t-18 -16.5t-13 -20.5t-5 -26.5q0 -21 12 -37t34 -16q12 0 27 3t29 9l-2 -78q-20 -7 -43 -11t-52 -4q-64 0 -94.5 28.5t-30.5 68.5q0 32 19.5 59t59.5 56h-39v700h164v-700z" />
    <glyph glyph-name="iogonek" unicode="&#x12f;" horiz-adv-x="283" 
d="M43 642q0 41 28 69t70 28q21 0 39 -7.5t31.5 -20.5t21 -31t7.5 -38t-7.5 -37.5t-21 -31t-31.5 -21t-39 -7.5t-38.5 7.5t-31 21t-21 31t-7.5 37.5zM237 -197q-20 -7 -43 -11t-52 -4q-65 0 -95.5 28.5t-30.5 68.5q0 32 19.5 59t59.5 56h-30v482h153v-482h-25
q-10 -7 -20 -14.5t-18 -16.5t-13 -20.5t-5 -26.5q0 -21 12 -37t34 -16q12 0 27 3t29 9z" />
    <glyph glyph-name="Idotaccent" unicode="&#x130;" horiz-adv-x="298" 
d="M54 861q0 19 7.5 36.5t20 30t29.5 20t37 7.5t37.5 -7.5t30.5 -20t20.5 -30t7.5 -36.5t-7.5 -36t-20.5 -29.5t-30.5 -20t-37.5 -7.5t-37 7.5t-29.5 20t-20 29.5t-7.5 36zM67 700h164v-700h-164v700z" />
    <glyph glyph-name="dotlessi" unicode="&#x131;" horiz-adv-x="258" 
d="M53 482h153v-482h-153v482z" />
    <glyph glyph-name="Jcircumflex" unicode="&#x134;" horiz-adv-x="583" 
d="M442 993l197 -164l-76 -84l-120 107l-119 -106l-77 83zM523 241q0 -125 -67.5 -191.5t-188.5 -66.5q-63 0 -111 20t-80 55t-48 82t-16 102h162q0 -52 23 -86t70 -34t71 31.5t24 87.5v459h161v-459z" />
    <glyph glyph-name="jcircumflex" unicode="&#x135;" horiz-adv-x="283" 
d="M142 781l197 -164l-76 -84l-120 107l-119 -106l-77 83zM218 -75q0 -47 -10.5 -77.5t-28 -47.5t-41 -23.5t-49.5 -6.5q-29 0 -59 3.5t-44 8.5v114q14 -4 22 -5t17 -1q20 0 30 11t10 37v544h153v-557z" />
    <glyph glyph-name="Kcommaaccent" unicode="&#x136;" horiz-adv-x="659" 
d="M455 0l-226 296v-296h-162v700h162v-297l226 297h195l-277 -350l277 -350h-195zM253 -93q0 32 22 54.5t54 22.5q38 0 62 -27.5t24 -70.5q0 -44 -11 -74t-31 -48.5t-49.5 -27.5t-66.5 -9v48q24 0 41 5.5t28 14.5q11 8 16 19.5t7 22.5q-2 -2 -8 -4t-12 -2q-35 0 -55.5 22
t-20.5 54z" />
    <glyph glyph-name="kcommaaccent" unicode="&#x137;" horiz-adv-x="554" 
d="M549 482l-188 -241l187 -241h-182l-148 202v-202h-153v700h153v-422l149 204h182zM197 -93q0 32 22 54.5t53 22.5q38 0 62.5 -27.5t24.5 -70.5q0 -44 -11 -74t-31.5 -48.5t-50 -27.5t-66.5 -9v48q25 0 42 5.5t28 14.5q11 8 16 19.5t6 22.5q-2 -2 -7.5 -4t-12.5 -2
q-35 0 -55 22t-20 54z" />
    <glyph glyph-name="kgreenlandic" unicode="&#x138;" horiz-adv-x="554" 
d="M361 241l187 -241h-182l-148 202v-202h-153v482h153v-204l149 204h182z" />
    <glyph glyph-name="Lacute" unicode="&#x139;" horiz-adv-x="453" 
d="M35 740l-48 106l276 128l48 -106zM428 140v-140h-361v700h162v-560h199z" />
    <glyph glyph-name="lacute" unicode="&#x13a;" horiz-adv-x="283" 
d="M28 747l-48 106l276 128l48 -106zM65 700h153v-700h-153v700z" />
    <glyph glyph-name="Lcommaaccent" unicode="&#x13b;" horiz-adv-x="453" 
d="M67 700h162v-560h199v-140h-361v700zM145 -93q0 32 22 54.5t54 22.5q38 0 62 -27.5t24 -70.5q0 -44 -11 -74t-31 -48.5t-49.5 -27.5t-66.5 -9v48q25 0 41.5 5.5t27.5 14.5q11 8 16.5 19.5t6.5 22.5q-2 -2 -8 -4t-12 -2q-35 0 -55.5 22t-20.5 54z" />
    <glyph glyph-name="lcommaaccent" unicode="&#x13c;" horiz-adv-x="283" 
d="M65 700h153v-700h-153v700zM61 -93q0 32 22 54.5t53 22.5q38 0 62.5 -27.5t24.5 -70.5q0 -44 -11 -74t-31.5 -48.5t-50 -27.5t-66.5 -9v48q25 0 42 5.5t28 14.5q11 8 16 19.5t6 22.5q-2 -2 -7.5 -4t-12.5 -2q-35 0 -55 22t-20 54z" />
    <glyph glyph-name="Lcaron" unicode="&#x13d;" horiz-adv-x="453" 
d="M312 643q0 20 7.5 38t20 31t29.5 20.5t37 7.5q49 0 78.5 -34t29.5 -88t-13.5 -92t-39 -61t-62 -34t-83.5 -11v59q31 0 51.5 7t34.5 18t20.5 25t8.5 28q-2 -2 -9.5 -4.5t-15.5 -2.5q-44 0 -69 27.5t-25 65.5zM428 140v-140h-361v700h162v-560h199z" />
    <glyph glyph-name="lcaron" unicode="&#x13e;" horiz-adv-x="492" 
d="M280 643q0 20 7.5 38t20 31t29.5 20.5t37 7.5q49 0 78.5 -34t29.5 -88t-13.5 -92t-39 -61t-62 -34t-83.5 -11v59q31 0 51.5 7t34.5 18t20.5 25t8.5 28q-2 -2 -9.5 -4.5t-15.5 -2.5q-44 0 -69 27.5t-25 65.5zM65 700h153v-700h-153v700z" />
    <glyph glyph-name="Ldot" unicode="&#x13f;" horiz-adv-x="478" 
d="M428 140v-140h-361v700h162v-560h199zM295 410q0 21 7.5 39t21 31.5t32 21.5t39.5 8q44 0 73 -29t29 -71t-29 -71t-73 -29q-21 0 -39.5 8t-32 21.5t-21 31.5t-7.5 39z" />
    <glyph glyph-name="ldot" unicode="&#x140;" horiz-adv-x="440" 
d="M65 700h153v-700h-153v700zM261 344q0 21 8 39t21.5 31.5t32 21.5t39.5 8t40 -8t32.5 -21.5t21.5 -31.5t8 -39t-8 -39t-21.5 -31.5t-32.5 -21.5t-40 -8t-39.5 8t-32 21.5t-21.5 31.5t-8 39z" />
    <glyph glyph-name="Lslash" unicode="&#x141;" horiz-adv-x="456" 
d="M431 140v-140h-361v256l-43 -20v96l43 20v348h162v-273l137 62v-96l-137 -62v-191h199z" />
    <glyph glyph-name="lslash" unicode="&#x142;" horiz-adv-x="290" 
d="M66 281l-64 -33v94l64 33v325h164v-248l66 35v-96l-66 -34v-357h-164v281z" />
    <glyph glyph-name="Nacute" unicode="&#x143;" horiz-adv-x="717" 
d="M244 740l-48 106l276 128l48 -106zM489 244v456h161v-700h-169l-252 450v-450h-162v700h169z" />
    <glyph glyph-name="nacute" unicode="&#x144;" horiz-adv-x="607" 
d="M190 509l-49 106l276 128l49 -106zM65 482h153v-70q20 39 60.5 60.5t97.5 21.5q47 0 81 -14.5t54 -40.5q23 -28 30.5 -64.5t7.5 -88.5v-286h-153v247q0 52 -18.5 84.5t-66.5 32.5q-47 0 -70 -33t-23 -89v-242h-153v482z" />
    <glyph glyph-name="Ncommaaccent" unicode="&#x145;" horiz-adv-x="717" 
d="M481 0l-252 450v-450h-162v700h169l253 -456v456h161v-700h-169zM277 -93q0 32 22 54.5t54 22.5q38 0 62 -27.5t24 -70.5q0 -44 -11 -74t-31 -48.5t-49.5 -27.5t-66.5 -9v48q25 0 41.5 5.5t27.5 14.5q11 8 16.5 19.5t6.5 22.5q-2 -2 -8 -4t-12 -2q-35 0 -55.5 22
t-20.5 54z" />
    <glyph glyph-name="ncommaaccent" unicode="&#x146;" horiz-adv-x="607" 
d="M65 0v482h153v-70q20 39 60.5 60.5t97.5 21.5q47 0 81 -14.5t54 -40.5q23 -28 30.5 -64.5t7.5 -88.5v-286h-153v247q0 52 -18.5 84.5t-66.5 32.5q-47 0 -70 -33t-23 -89v-242h-153zM233 -93q0 32 22 54.5t53 22.5q38 0 62.5 -27.5t24.5 -70.5q0 -44 -11 -74t-31.5 -48.5
t-50 -27.5t-66.5 -9v48q25 0 42 5.5t28 14.5q11 8 16 19.5t6 22.5q-2 -2 -7.5 -4t-12.5 -2q-35 0 -55 22t-20 54z" />
    <glyph glyph-name="Ncaron" unicode="&#x147;" horiz-adv-x="717" 
d="M165 907l76 83l120 -108l120 108l76 -83l-197 -165zM489 244v456h161v-700h-169l-252 450v-450h-162v700h169z" />
    <glyph glyph-name="ncaron" unicode="&#x148;" horiz-adv-x="607" 
d="M117 691l77 82l119 -108l120 109l76 -83l-197 -165zM65 0v482h153v-70q20 39 60.5 60.5t97.5 21.5q47 0 81 -14.5t54 -40.5q23 -28 30.5 -64.5t7.5 -88.5v-286h-153v247q0 52 -18.5 84.5t-66.5 32.5q-47 0 -70 -33t-23 -89v-242h-153z" />
    <glyph glyph-name="napostrophe" unicode="&#x149;" horiz-adv-x="607" 
d="M-83 718q0 34 23.5 58t57.5 24q41 0 66.5 -29t25.5 -76q0 -92 -45 -130t-124 -39v52q26 0 43.5 5.5t29.5 14.5q12 10 17.5 21.5t7.5 23.5q-2 -2 -8.5 -4t-12.5 -2q-38 0 -59.5 24t-21.5 57zM65 0v482h153v-70q20 39 60.5 60.5t97.5 21.5q47 0 81 -14.5t54 -40.5
q23 -28 30.5 -64.5t7.5 -88.5v-286h-153v247q0 52 -18.5 84.5t-66.5 32.5q-47 0 -70 -33t-23 -89v-242h-153z" />
    <glyph glyph-name="Eng" unicode="&#x14a;" horiz-adv-x="717" 
d="M489 244v456h161v-688q0 -125 -67.5 -191t-188.5 -66q-54 0 -96 20.5t-73 55.5l94 100q19 -17 35 -27.5t40 -10.5q45 0 68 29.5t25 78.5l-258 449v-450h-162v700h162z" />
    <glyph glyph-name="eng" unicode="&#x14b;" horiz-adv-x="607" 
d="M249 -76q15 -14 29 -23t36 -9q41 0 61 28.5t21 73.5v253q0 52 -18.5 84.5t-66.5 32.5q-47 0 -70 -33t-23 -89v-242h-153v482h153v-70q20 39 60.5 60.5t97.5 21.5q47 0 81 -14.5t54 -40.5q23 -28 30.5 -64.5t7.5 -88.5v-298q0 -106 -54.5 -162.5t-153.5 -56.5
q-49 0 -86 16.5t-65 43.5z" />
    <glyph glyph-name="Omacron" unicode="&#x14c;" horiz-adv-x="805" 
d="M587 794h-368v115h368v-115zM403 -18q-87 0 -156 30.5t-117 81.5t-73 117.5t-25 138.5t25 138.5t73 117.5t117 81.5t156 30.5t155.5 -30.5t116.5 -81.5t73 -117.5t25 -138.5t-25 -138.5t-73 -117.5t-116.5 -81.5t-155.5 -30.5zM403 128q48 0 86 18.5t64.5 49.5t40.5 71
t14 83t-14 83t-40.5 71t-64.5 49.5t-86 18.5t-86 -18.5t-64.5 -49.5t-40.5 -71t-14 -83t14 -83t40.5 -71t64.5 -49.5t86 -18.5z" />
    <glyph glyph-name="omacron" unicode="&#x14d;" horiz-adv-x="599" 
d="M484 572h-368v115h368v-115zM299 -13q-62 0 -111.5 20.5t-84 55t-53 80.5t-18.5 98t18.5 98t53 80.5t84 55t111.5 20.5q63 0 112.5 -20.5t84 -55t53 -80.5t18.5 -98t-18.5 -98t-53 -80.5t-84 -55t-112.5 -20.5zM299 118q26 0 47.5 9.5t36.5 26.5t23.5 39t8.5 48
q0 25 -8.5 47.5t-23.5 39t-36.5 26.5t-47.5 10t-47 -10t-36 -26.5t-23 -39t-8 -47.5q0 -26 8 -48t23 -39t36 -26.5t47 -9.5z" />
    <glyph glyph-name="Obreve" unicode="&#x14e;" horiz-adv-x="805" 
d="M403 868q38 0 60.5 20.5t30.5 51.5h123q-6 -39 -25 -71t-47.5 -54.5t-65 -34.5t-76.5 -12q-41 0 -77.5 12t-65 34.5t-47 54.5t-24.5 71h122q9 -31 31.5 -51.5t60.5 -20.5zM403 -18q-87 0 -156 30.5t-117 81.5t-73 117.5t-25 138.5t25 138.5t73 117.5t117 81.5t156 30.5
t155.5 -30.5t116.5 -81.5t73 -117.5t25 -138.5t-25 -138.5t-73 -117.5t-116.5 -81.5t-155.5 -30.5zM403 128q48 0 86 18.5t64.5 49.5t40.5 71t14 83t-14 83t-40.5 71t-64.5 49.5t-86 18.5t-86 -18.5t-64.5 -49.5t-40.5 -71t-14 -83t14 -83t40.5 -71t64.5 -49.5t86 -18.5z
" />
    <glyph glyph-name="obreve" unicode="&#x14f;" horiz-adv-x="599" 
d="M299 652q38 0 60.5 20.5t30.5 51.5h123q-6 -39 -25 -71t-47.5 -54.5t-65 -34.5t-76.5 -12q-41 0 -77.5 12t-65 34.5t-47 54.5t-24.5 71h123q8 -31 30.5 -51.5t60.5 -20.5zM299 -13q-62 0 -111.5 20.5t-84 55t-53 80.5t-18.5 98t18.5 98t53 80.5t84 55t111.5 20.5
q63 0 112.5 -20.5t84 -55t53 -80.5t18.5 -98t-18.5 -98t-53 -80.5t-84 -55t-112.5 -20.5zM299 118q26 0 47.5 9.5t36.5 26.5t23.5 39t8.5 48q0 25 -8.5 47.5t-23.5 39t-36.5 26.5t-47.5 10t-47 -10t-36 -26.5t-23 -39t-8 -47.5q0 -26 8 -48t23 -39t36 -26.5t47 -9.5z" />
    <glyph glyph-name="Ohungarumlaut" unicode="&#x150;" horiz-adv-x="805" 
d="M208 798l125 180l106 -62l-169 -146zM528 978l106 -62l-169 -146l-62 28zM403 -18q-87 0 -156 30.5t-117 81.5t-73 117.5t-25 138.5t25 138.5t73 117.5t117 81.5t156 30.5t155.5 -30.5t116.5 -81.5t73 -117.5t25 -138.5t-25 -138.5t-73 -117.5t-116.5 -81.5t-155.5 -30.5
zM403 128q48 0 86 18.5t64.5 49.5t40.5 71t14 83t-14 83t-40.5 71t-64.5 49.5t-86 18.5t-86 -18.5t-64.5 -49.5t-40.5 -71t-14 -83t14 -83t40.5 -71t64.5 -49.5t86 -18.5z" />
    <glyph glyph-name="ohungarumlaut" unicode="&#x151;" horiz-adv-x="599" 
d="M380 547l-62 28l125 179l106 -61zM248 754l106 -61l-169 -146l-62 28zM299 -13q-62 0 -111.5 20.5t-84 55t-53 80.5t-18.5 98t18.5 98t53 80.5t84 55t111.5 20.5q63 0 112.5 -20.5t84 -55t53 -80.5t18.5 -98t-18.5 -98t-53 -80.5t-84 -55t-112.5 -20.5zM299 118
q26 0 47.5 9.5t36.5 26.5t23.5 39t8.5 48q0 25 -8.5 47.5t-23.5 39t-36.5 26.5t-47.5 10t-47 -10t-36 -26.5t-23 -39t-8 -47.5q0 -26 8 -48t23 -39t36 -26.5t47 -9.5z" />
    <glyph glyph-name="OE" unicode="&#x152;" horiz-adv-x="1097" 
d="M403 127q48 0 86 18.5t64.5 49.5t40.5 71t14 83t-14 82.5t-40.5 70.5t-64.5 49.5t-86 18.5t-86 -18.5t-64.5 -49.5t-40.5 -70.5t-14 -82.5t14 -83t40.5 -71t64.5 -49.5t86 -18.5zM770 570v-159h266v-127h-266v-154h266v-130h-427v47q-40 -31 -91.5 -48.5t-114.5 -17.5
q-87 0 -156 30.5t-117 81.5t-73 117.5t-25 138.5t25 138.5t73 117.5t117 81.5t156 30.5q63 0 114.5 -18t91.5 -49v50h427v-130h-266z" />
    <glyph glyph-name="oe" unicode="&#x153;" horiz-adv-x="958" 
d="M569 204q0 -22 5.5 -41.5t18 -34t32.5 -23t50 -8.5q40 0 60.5 16t28.5 39h150q-6 -34 -24.5 -64t-49 -52.5t-72 -35.5t-93.5 -13q-61 0 -108 19t-79 52q-34 -32 -81.5 -51.5t-107.5 -19.5q-62 0 -111.5 20.5t-84 55t-53 80.5t-18.5 98t18.5 98t53 80.5t84 55t111.5 20.5
q60 0 107 -19.5t81 -51.5q32 33 78.5 52t106.5 19q57 0 102.5 -18t78 -48t50 -70t17.5 -84q0 -15 -1 -32t-5 -39h-345zM670 387q-43 0 -71.5 -24.5t-28.5 -70.5h199q0 44 -27 69.5t-72 25.5zM299 118q52 0 84 35t32 88q0 52 -32 87.5t-84 35.5q-26 0 -47 -10t-36 -26.5
t-23 -39t-8 -47.5q0 -26 8 -48t23 -39t36 -26.5t47 -9.5z" />
    <glyph glyph-name="Racute" unicode="&#x154;" horiz-adv-x="654" 
d="M213 740l-48 106l276 128l48 -106zM340 326q25 0 46 10t35.5 26.5t22.5 38.5t8 46t-8 46t-22.5 38.5t-35.5 26.5t-46 10h-111v-242h111zM67 700h294q58 0 105 -20.5t80.5 -55t51.5 -80.5t18 -97q0 -74 -36.5 -134.5t-102.5 -91.5l140 -221h-188l-124 194h-76v-194h-162
v700z" />
    <glyph glyph-name="racute" unicode="&#x155;" horiz-adv-x="417" 
d="M95 522l-48 106l276 128l48 -106zM411 343q-16 4 -27 5.5t-27 1.5q-63 0 -101 -37t-38 -125v-188h-153v482h153v-78q17 34 56.5 60t90.5 26q27 0 46 -8v-139z" />
    <glyph glyph-name="Rcommaaccent" unicode="&#x156;" horiz-adv-x="654" 
d="M67 700h294q58 0 105 -20.5t80.5 -55t51.5 -80.5t18 -97q0 -74 -36.5 -134.5t-102.5 -91.5l140 -221h-188l-124 194h-76v-194h-162v700zM229 568v-242h111q25 0 46 10t35.5 26.5t22.5 38.5t8 46t-8 46t-22.5 38.5t-35.5 26.5t-46 10h-111zM246 -93q0 32 22 54.5t53 22.5
q38 0 62.5 -27.5t24.5 -70.5q0 -44 -11 -74t-31.5 -48.5t-50 -27.5t-66.5 -9v48q48 0 69 19.5t23 42.5q-1 -2 -7.5 -4t-12.5 -2q-35 0 -55 22t-20 54z" />
    <glyph glyph-name="rcommaaccent" unicode="&#x157;" horiz-adv-x="417" 
d="M411 343q-16 4 -27 5.5t-27 1.5q-63 0 -101 -37t-38 -125v-188h-153v482h153v-78q17 34 56.5 60t90.5 26q27 0 46 -8v-139zM61 -93q0 32 22 54.5t53 22.5q38 0 62.5 -27t24.5 -71t-11 -73.5t-31.5 -48.5t-50 -27.5t-66.5 -8.5v48q25 0 42 5t28 14q20 17 22 43
q-2 -2 -7.5 -4.5t-12.5 -2.5q-35 0 -55 22.5t-20 53.5z" />
    <glyph glyph-name="Rcaron" unicode="&#x158;" horiz-adv-x="654" 
d="M109 907l76 83l120 -108l120 108l76 -83l-197 -165zM340 326q25 0 46 10t35.5 26.5t22.5 38.5t8 46t-8 46t-22.5 38.5t-35.5 26.5t-46 10h-111v-242h111zM67 700h294q58 0 105 -20.5t80.5 -55t51.5 -80.5t18 -97q0 -74 -36.5 -134.5t-102.5 -91.5l140 -221h-188l-124 194
h-76v-194h-162v700z" />
    <glyph glyph-name="rcaron" unicode="&#x159;" horiz-adv-x="417" 
d="M37 691l77 82l119 -108l120 109l76 -83l-197 -165zM411 343q-16 4 -27 5.5t-27 1.5q-63 0 -101 -37t-38 -125v-188h-153v482h153v-78q17 34 56.5 60t90.5 26q27 0 46 -8v-139z" />
    <glyph glyph-name="Sacute" unicode="&#x15a;" horiz-adv-x="606" 
d="M189 740l-49 106l276 128l49 -106zM200 232q0 -57 31 -89t81 -32q39 0 65.5 22.5t26.5 59.5q0 21 -8.5 35.5t-23 25.5t-34.5 19.5t-43 17.5q-48 18 -91.5 36t-75.5 43.5t-51 61.5t-19 89q0 48 20.5 85t54.5 62t78.5 37.5t92.5 12.5q62 0 109 -18t78 -49t46.5 -71
t15.5 -85h-162q0 47 -22.5 74t-64.5 27q-35 0 -60 -18t-25 -54q0 -35 27.5 -55.5t72.5 -36.5q43 -15 87 -32.5t79 -43t57.5 -62t22.5 -88.5q0 -54 -19.5 -96t-54.5 -70.5t-83 -43t-106 -14.5q-56 0 -104.5 16.5t-84 48.5t-55.5 78.5t-20 106.5h162z" />
    <glyph glyph-name="sacute" unicode="&#x15b;" horiz-adv-x="510" 
d="M141 509l-48 106l276 128l48 -106zM318 284q32 -9 60 -19.5t49 -26t33.5 -38.5t12.5 -58q0 -43 -17 -72.5t-47 -48t-69.5 -26.5t-84.5 -8q-103 0 -162.5 45t-59.5 130l150 -1q0 -38 21.5 -54.5t55.5 -16.5q28 0 45.5 10.5t17.5 34.5q0 14 -7.5 22.5t-23 16t-40 15
t-58.5 18.5q-30 9 -57 19.5t-47.5 25.5t-32.5 38t-12 58q0 75 57.5 111t155.5 36q52 0 91.5 -12.5t65 -34.5t38.5 -52t13 -64h-151q0 30 -15.5 46.5t-47.5 16.5q-23 0 -40 -10.5t-17 -32.5q0 -13 8 -21.5t23.5 -15.5t38.5 -14t53 -17z" />
    <glyph glyph-name="Scircumflex" unicode="&#x15c;" horiz-adv-x="606" 
d="M305 993l197 -164l-76 -84l-120 107l-119 -106l-77 83zM200 232q0 -57 31 -89t81 -32q39 0 65.5 22.5t26.5 59.5q0 21 -8.5 35.5t-23 25.5t-34.5 19.5t-43 17.5q-48 18 -91.5 36t-75.5 43.5t-51 61.5t-19 89q0 48 20.5 85t54.5 62t78.5 37.5t92.5 12.5q62 0 109 -18
t78 -49t46.5 -71t15.5 -85h-162q0 47 -22.5 74t-64.5 27q-35 0 -60 -18t-25 -54q0 -35 27.5 -55.5t72.5 -36.5q43 -15 87 -32.5t79 -43t57.5 -62t22.5 -88.5q0 -54 -19.5 -96t-54.5 -70.5t-83 -43t-106 -14.5q-56 0 -104.5 16.5t-84 48.5t-55.5 78.5t-20 106.5h162z" />
    <glyph glyph-name="scircumflex" unicode="&#x15d;" horiz-adv-x="510" 
d="M256 781l197 -164l-76 -84l-120 107l-120 -106l-76 83zM318 284q32 -9 60 -19.5t49 -26t33.5 -38.5t12.5 -58q0 -43 -17 -72.5t-47 -48t-69.5 -26.5t-84.5 -8q-103 0 -162.5 45t-59.5 130l150 -1q0 -38 21.5 -54.5t55.5 -16.5q28 0 45.5 10.5t17.5 34.5q0 14 -7.5 22.5
t-23 16t-40 15t-58.5 18.5q-30 9 -57 19.5t-47.5 25.5t-32.5 38t-12 58q0 75 57.5 111t155.5 36q52 0 91.5 -12.5t65 -34.5t38.5 -52t13 -64h-151q0 30 -15.5 46.5t-47.5 16.5q-23 0 -40 -10.5t-17 -32.5q0 -13 8 -21.5t23.5 -15.5t38.5 -14t53 -17z" />
    <glyph glyph-name="Scedilla" unicode="&#x15e;" horiz-adv-x="606" 
d="M263 -16q-49 6 -90.5 24.5t-71.5 50t-46.5 75t-16.5 98.5h162q0 -57 31 -89t81 -32q39 0 65.5 22.5t26.5 59.5q0 21 -8.5 35.5t-23 25.5t-34.5 19.5t-43 17.5q-48 18 -91.5 36t-75.5 43.5t-51 61.5t-19 89q0 48 20.5 85t54.5 62t78.5 37.5t92.5 12.5q62 0 109 -18t78 -49
t46.5 -71t15.5 -85h-162q0 47 -22.5 74t-64.5 27q-35 0 -60 -18t-25 -54q0 -35 27.5 -55.5t72.5 -36.5q43 -15 87 -32.5t79 -43t57.5 -62t22.5 -88.5q0 -50 -16 -89t-45.5 -67t-71 -44.5t-91.5 -21.5v-43q6 6 16 10.5t26 4.5t31.5 -6.5t26.5 -18.5t18 -28.5t7 -35.5t-7 -37
t-20.5 -32.5t-34 -23t-47.5 -8.5q-14 0 -31.5 4t-33.5 14.5t-28 28.5t-15 46h74q3 -14 11.5 -22t22.5 -8q15 0 25 10.5t10 27.5q0 15 -10 24.5t-24 9.5q-21 0 -30 -17h-65v100z" />
    <glyph glyph-name="scedilla" unicode="&#x15f;" horiz-adv-x="510" 
d="M205 -9q-82 11 -127 54.5t-45 116.5l150 -1q0 -38 21.5 -54.5t55.5 -16.5q28 0 45.5 10.5t17.5 34.5q0 14 -7.5 22.5t-23 16t-40 15t-58.5 18.5q-30 9 -57 19.5t-47.5 25.5t-32.5 38t-12 58q0 75 57.5 111t155.5 36q52 0 91.5 -12.5t65 -34.5t38.5 -52t13 -64h-151
q0 30 -15.5 46.5t-47.5 16.5q-23 0 -40 -10.5t-17 -32.5q0 -13 8 -21.5t23.5 -15.5t38.5 -14t53 -17q32 -9 60 -19.5t49 -26t33.5 -38.5t12.5 -58q0 -39 -14.5 -67t-40 -46.5t-60.5 -28t-75 -11.5v-46q6 6 16 10.5t26 4.5t31.5 -6.5t26.5 -18.5t18 -28.5t7 -35.5t-7 -37
t-20.5 -32.5t-34 -23t-47.5 -8.5q-14 0 -31.5 4t-33.5 14.5t-28 28.5t-15 46h74q3 -14 11.5 -22t22.5 -8q15 0 25 10.5t10 27.5q0 15 -10 24.5t-24 9.5q-21 0 -30 -17h-65v105z" />
    <glyph glyph-name="Scaron" unicode="&#x160;" horiz-adv-x="606" 
d="M113 907l77 83l119 -108l120 108l76 -83l-197 -165zM200 232q0 -57 31 -89t81 -32q39 0 65.5 22.5t26.5 59.5q0 21 -8.5 35.5t-23 25.5t-34.5 19.5t-43 17.5q-48 18 -91.5 36t-75.5 43.5t-51 61.5t-19 89q0 48 20.5 85t55 62t79.5 37.5t93 12.5q62 0 108.5 -18t77 -49
t46 -71t15.5 -85h-162q0 47 -22.5 74t-64.5 27q-35 0 -60 -18t-25 -54q0 -35 27.5 -55.5t72.5 -36.5q43 -15 87 -32.5t79 -43t57.5 -62t22.5 -88.5q0 -54 -19.5 -96t-54.5 -70.5t-83 -43t-106 -14.5q-56 0 -104.5 16.5t-84 48.5t-55.5 78.5t-20 106.5h162z" />
    <glyph glyph-name="scaron" unicode="&#x161;" horiz-adv-x="510" 
d="M61 691l76 82l120 -108l120 109l76 -83l-197 -165zM318 284q32 -9 60 -19.5t49 -26t33.5 -38.5t12.5 -58q0 -43 -17 -72.5t-47 -48t-69.5 -26.5t-84.5 -8q-103 0 -162.5 45t-59.5 129h150q0 -38 21.5 -54.5t55.5 -16.5q28 0 45.5 10.5t17.5 34.5q0 14 -7.5 22.5t-23 16
t-40 15t-58.5 18.5q-30 9 -57 19.5t-47.5 25.5t-32.5 38t-12 58q0 75 57.5 111t155.5 36q52 0 91.5 -12.5t65 -34.5t38.5 -52t13 -64h-151q0 30 -15.5 46.5t-47.5 16.5q-23 0 -40 -10.5t-17 -32.5q0 -13 8 -21.5t23.5 -15.5t38.5 -14t53 -17z" />
    <glyph glyph-name="Tcommaaccent" unicode="&#x162;" horiz-adv-x="509" 
d="M173 560h-158v140h479v-140h-159v-560h-162v560zM176 -93q0 32 22 54.5t53 22.5q38 0 62.5 -27.5t24.5 -70.5q0 -44 -11 -74t-31.5 -48.5t-50 -27.5t-66.5 -9v48q48 0 69 19.5t23 42.5q-1 -2 -7.5 -4t-12.5 -2q-35 0 -55 22t-20 54z" />
    <glyph glyph-name="tcommaaccent" unicode="&#x163;" horiz-adv-x="383" 
d="M17 482h76v143h152v-143h110v-114h-110v-172q0 -27 5 -43t14 -24.5t21 -11.5t26 -3t29 0.5t26 2.5v-117q-17 -3 -42.5 -5.5t-59.5 -2.5q-27 0 -57 4t-55.5 20.5t-42 51t-16.5 94.5v206h-76v114zM143 -93q0 32 22 54.5t53 22.5q38 0 62.5 -27.5t24.5 -70.5q0 -44 -11 -74
t-31.5 -48.5t-50 -27.5t-66.5 -9v48q25 0 42 5.5t28 14.5q11 8 16 19.5t6 22.5q-2 -2 -7.5 -4t-12.5 -2q-35 0 -55 22t-20 54z" />
    <glyph glyph-name="Tcaron" unicode="&#x164;" horiz-adv-x="509" 
d="M59 907l76 83l120 -108l120 108l76 -83l-197 -165zM173 560h-158v140h479v-140h-159v-560h-162v560z" />
    <glyph glyph-name="tcaron" unicode="&#x165;" horiz-adv-x="635" 
d="M379 628q0 40 27.5 68.5t67.5 28.5q48 0 77.5 -34t29.5 -89q0 -54 -13 -92t-38.5 -61t-62 -34t-83.5 -11v60q31 0 51.5 7t34.5 18t20.5 25t8.5 28q-2 -2 -9.5 -4.5t-15.5 -2.5q-44 0 -69.5 27.5t-25.5 65.5zM17 482h76v143h152v-143h110v-114h-110v-172q0 -27 5 -43
t14 -24.5t21 -11.5t26 -3t29 0.5t26 2.5v-117q-17 -3 -42.5 -5.5t-59.5 -2.5q-27 0 -57 4t-55.5 20.5t-42 51t-16.5 94.5v206h-76v114z" />
    <glyph glyph-name="Tbar" unicode="&#x166;" horiz-adv-x="509" 
d="M438 368h-103v-368h-162v368h-103v89h103v103h-158v140h479v-140h-159v-103h103v-89z" />
    <glyph glyph-name="tbar" unicode="&#x167;" horiz-adv-x="383" 
d="M366 0q-17 -3 -42.5 -5.5t-59.5 -2.5q-27 0 -57 4t-55.5 20.5t-42 51t-16.5 94.5v47h-76v82h76v77h-76v114h76v143h152v-143h110v-114h-110v-77h91v-82h-89v-19q0 -25 5 -40t13.5 -23t20 -10.5t25.5 -2.5t29 0.5t26 2.5v-117z" />
    <glyph glyph-name="Utilde" unicode="&#x168;" horiz-adv-x="657" 
d="M402 884q25 0 40.5 13.5t29.5 32.5l80 -70q-28 -45 -66 -64t-77 -19q-28 0 -49.5 7.5t-39 16t-33 16t-30.5 7.5q-25 0 -39.5 -13t-28.5 -33l-78 77q28 41 64.5 58.5t75.5 17.5q28 0 49 -7.5t38.5 -16t32.5 -16t31 -7.5zM56 700h162v-460q0 -24 8 -45.5t22.5 -37.5
t34.5 -25.5t45 -9.5t45.5 9.5t35 25.5t22.5 37.5t8 45.5v460h162v-461q0 -54 -19 -101t-54.5 -81.5t-86 -54.5t-113.5 -20t-113 20t-85.5 54.5t-54.5 81.5t-19 101v461z" />
    <glyph glyph-name="utilde" unicode="&#x169;" horiz-adv-x="607" 
d="M374 680q25 0 40.5 13t29.5 33l80 -71q-28 -44 -66 -63.5t-77 -19.5q-28 0 -49.5 7.5t-39 16t-33 16t-30.5 7.5q-25 0 -39.5 -13t-28.5 -33l-78 77q28 41 64.5 58.5t75.5 17.5q28 0 49 -7t38.5 -16t32.5 -16t31 -7zM542 0h-153v69q-20 -38 -60.5 -59.5t-97.5 -21.5
q-47 0 -81 14.5t-54 40.5q-23 28 -30 64.5t-7 88.5v286h152v-247q0 -52 18.5 -84.5t66.5 -32.5t70.5 33t22.5 89v242h153v-482z" />
    <glyph glyph-name="Umacron" unicode="&#x16a;" horiz-adv-x="657" 
d="M515 794h-368v115h368v-115zM56 700h162v-460q0 -24 8 -45.5t22.5 -37.5t34.5 -25.5t45 -9.5t45.5 9.5t35 25.5t22.5 37.5t8 45.5v460h162v-461q0 -54 -19 -101t-54.5 -81.5t-86 -54.5t-113.5 -20t-113 20t-85.5 54.5t-54.5 81.5t-19 101v461z" />
    <glyph glyph-name="umacron" unicode="&#x16b;" horiz-adv-x="607" 
d="M487 572h-368v115h368v-115zM542 0h-153v69q-20 -38 -60.5 -59.5t-97.5 -21.5q-47 0 -81 14.5t-54 40.5q-23 28 -30 64.5t-7 88.5v286h152v-247q0 -52 18.5 -84.5t66.5 -32.5t70.5 33t22.5 89v242h153v-482z" />
    <glyph glyph-name="Ubreve" unicode="&#x16c;" horiz-adv-x="657" 
d="M326 868q38 0 60.5 20.5t30.5 51.5h123q-6 -39 -25 -71t-47.5 -54.5t-65 -34.5t-76.5 -12q-41 0 -77.5 12t-65 34.5t-47 54.5t-24.5 71h123q8 -31 30.5 -51.5t60.5 -20.5zM56 700h162v-460q0 -24 8 -45.5t22.5 -37.5t34.5 -25.5t45 -9.5t45.5 9.5t35 25.5t22.5 37.5
t8 45.5v460h162v-461q0 -54 -19 -101t-54.5 -81.5t-86 -54.5t-113.5 -20t-113 20t-85.5 54.5t-54.5 81.5t-19 101v461z" />
    <glyph glyph-name="ubreve" unicode="&#x16d;" horiz-adv-x="607" 
d="M302 652q38 0 60.5 20.5t30.5 51.5h123q-6 -39 -25 -71t-47.5 -54.5t-65 -34.5t-76.5 -12q-41 0 -77.5 12t-65 34.5t-47 54.5t-24.5 71h123q8 -31 30.5 -51.5t60.5 -20.5zM542 0h-153v69q-20 -38 -60.5 -59.5t-97.5 -21.5q-47 0 -81 14.5t-54 40.5q-23 28 -30 64.5
t-7 88.5v286h152v-247q0 -52 18.5 -84.5t66.5 -32.5t70.5 33t22.5 89v242h153v-482z" />
    <glyph glyph-name="Uring" unicode="&#x16e;" horiz-adv-x="657" 
d="M328 1002q28 0 52.5 -11t43 -29.5t29 -43t10.5 -51.5t-10.5 -51.5t-29 -43t-43 -29t-52.5 -10.5t-52.5 10.5t-42.5 29t-28.5 43t-10.5 51.5q0 28 10.5 52.5t28.5 43t42.5 29t52.5 10.5zM328 920q-22 0 -36.5 -15.5t-14.5 -37.5q0 -20 15 -35t36 -15t36.5 15t15.5 36
t-14.5 36.5t-37.5 15.5zM56 700h162v-460q0 -24 8 -45.5t22.5 -37.5t34.5 -25.5t45 -9.5t45.5 9.5t35 25.5t22.5 37.5t8 45.5v460h162v-461q0 -54 -19 -101t-54.5 -81.5t-86 -54.5t-113.5 -20t-113 20t-85.5 54.5t-54.5 81.5t-19 101v461z" />
    <glyph glyph-name="uring" unicode="&#x16f;" horiz-adv-x="607" 
d="M300 804q29 0 54 -11t44 -30t29.5 -44t10.5 -53t-10.5 -53t-29.5 -44t-44 -30t-54 -11t-54 11t-43.5 30t-29.5 44t-11 53q0 29 11 54t29.5 44t43.5 29.5t54 10.5zM300 726q-25 0 -41.5 -17.5t-16.5 -42.5q0 -23 17 -40t41 -17t41 17t17 42q0 23 -16 40.5t-42 17.5zM542 0
h-153v69q-20 -38 -60.5 -59.5t-97.5 -21.5q-47 0 -81 14.5t-54 40.5q-23 28 -30 64.5t-7 88.5v286h152v-247q0 -52 18.5 -84.5t66.5 -32.5t70.5 33t22.5 89v242h153v-482z" />
    <glyph glyph-name="Uhungarumlaut" unicode="&#x170;" horiz-adv-x="657" 
d="M268 978l106 -62l-169 -146l-62 28zM463 978l106 -62l-169 -146l-62 28zM56 700h162v-460q0 -24 8 -45.5t22.5 -37.5t34.5 -25.5t45 -9.5t45.5 9.5t35 25.5t22.5 37.5t8 45.5v460h162v-461q0 -54 -19 -101t-54.5 -81.5t-86 -54.5t-113.5 -20t-113 20t-85.5 54.5
t-54.5 81.5t-19 101v461z" />
    <glyph glyph-name="uhungarumlaut" unicode="&#x171;" horiz-adv-x="607" 
d="M378 531l-62 28l125 180l106 -62zM183 531l-62 28l125 180l106 -62zM542 482v-482h-153v69q-20 -38 -60.5 -59.5t-97.5 -21.5q-47 0 -81 14.5t-54 40.5q-23 28 -30 64.5t-7 88.5v286h152v-247q0 -52 18.5 -84.5t66.5 -32.5t70.5 33t22.5 89v242h153z" />
    <glyph glyph-name="Uogonek" unicode="&#x172;" horiz-adv-x="657" 
d="M432 -197q-20 -7 -43 -11t-52 -4q-64 0 -94.5 28.5t-30.5 68.5q0 55 61 101q-51 8 -91 30.5t-68 56t-43 76t-15 90.5v461h162v-460q0 -24 8 -45.5t22.5 -37.5t34.5 -25.5t45 -9.5t45.5 9.5t35 25.5t22.5 37.5t8 45.5v460h162v-461q0 -50 -16 -94t-46.5 -77.5t-74 -55
t-97.5 -27.5q-14 -11 -24.5 -26t-10.5 -37q0 -21 12 -37t34 -16q12 0 27 3t29 9z" />
    <glyph glyph-name="uogonek" unicode="&#x173;" horiz-adv-x="607" 
d="M231 -12q-47 0 -81 14.5t-54 40.5q-23 28 -30 64.5t-7 88.5v286h152v-247q0 -52 18.5 -84.5t66.5 -32.5t70.5 33t22.5 89v242h153v-482h-55q-23 -14 -43 -34t-20 -51q0 -18 11.5 -32t31.5 -14q12 0 27 3t29 9l-2 -78q-20 -7 -43 -11t-52 -4q-66 0 -97.5 28.5t-31.5 68.5
q0 33 23 61t69 57v66q-20 -38 -60.5 -59.5t-97.5 -21.5z" />
    <glyph glyph-name="Wcircumflex" unicode="&#x174;" horiz-adv-x="1035" 
d="M518 993l197 -164l-76 -84l-120 107l-120 -106l-76 83zM518 440l-139 -440h-133l-247 700h171l143 -459l142 459h125l143 -459l142 459h171l-247 -700h-132z" />
    <glyph glyph-name="wcircumflex" unicode="&#x175;" horiz-adv-x="803" 
d="M404 781l196 -164l-76 -84l-120 107l-119 -106l-77 83zM402 307l-99 -307h-124l-180 482h158l89 -287l85 287h141l85 -287l89 287h158l-180 -482h-124z" />
    <glyph glyph-name="Ycircumflex" unicode="&#x176;" horiz-adv-x="641" 
d="M335 993l197 -164l-76 -84l-120 107l-120 -106l-76 83zM302 0h-179l129 263l-248 437h189l149 -275l128 275h179z" />
    <glyph glyph-name="ycircumflex" unicode="&#x177;" horiz-adv-x="615" 
d="M309 781l196 -164l-76 -84l-120 107l-119 -106l-77 83zM303 -231q-59 0 -102.5 12t-75.5 38q-29 23 -47.5 59t-18.5 85h153q2 -41 28.5 -62.5t64.5 -21.5q44 0 69 21.5t25 77.5v99q-20 -39 -59.5 -60t-94.5 -21q-48 0 -83.5 16t-55.5 42q-23 28 -30 62.5t-7 86.5v279h152
v-247q0 -52 18.5 -84.5t66.5 -32.5t70.5 33t22.5 89v242h153v-494q0 -57 -18 -99t-48 -68q-33 -27 -76.5 -39.5t-106.5 -12.5z" />
    <glyph glyph-name="Ydieresis" unicode="&#x178;" horiz-adv-x="641" 
d="M129 852q0 19 7 36t19.5 29.5t29.5 19.5t36 7t36 -7t29.5 -19.5t19.5 -29.5t7 -36q0 -37 -26.5 -63.5t-65.5 -26.5q-19 0 -36 7t-29.5 19.5t-19.5 29t-7 34.5zM370 852q0 19 7 36t19.5 29.5t29 19.5t35.5 7t36 -7t30 -19.5t20 -29.5t7 -36q0 -18 -7 -34.5t-20 -29
t-30 -19.5t-36 -7t-35.5 7t-29 19.5t-19.5 29t-7 34.5zM302 0h-179l129 263l-248 437h189l149 -275l128 275h179z" />
    <glyph glyph-name="Zacute" unicode="&#x179;" horiz-adv-x="632" 
d="M206 740l-48 106l276 128l48 -106zM45 700h572l-343 -564h332v-136h-589l342 564h-314v136z" />
    <glyph glyph-name="zacute" unicode="&#x17a;" horiz-adv-x="480" 
d="M127 508l-49 106l276 128l49 -106zM467 482l-212 -352h205v-130h-442l213 352h-200v130h436z" />
    <glyph glyph-name="Zdotaccent" unicode="&#x17b;" horiz-adv-x="632" 
d="M224 860q0 19 7 36.5t20 30.5t30 20.5t37 7.5t37.5 -7.5t30 -20.5t20 -30.5t7.5 -36.5t-7.5 -36t-20 -29.5t-30 -20t-37.5 -7.5t-37 7.5t-30 20t-20 29.5t-7 36zM45 700h572l-343 -564h332v-136h-589l342 564h-314v136z" />
    <glyph glyph-name="zdotaccent" unicode="&#x17c;" horiz-adv-x="480" 
d="M146 629q0 39 27 66.5t67 27.5q20 0 37.5 -7.5t30 -20t20 -30t7.5 -36.5t-7.5 -36t-20 -29.5t-30 -20t-37.5 -7.5t-37 7.5t-30 20t-20 29.5t-7 36zM467 482l-212 -352h205v-130h-442l213 352h-200v130h436z" />
    <glyph glyph-name="Zcaron" unicode="&#x17d;" horiz-adv-x="632" 
d="M129 907l77 83l119 -108l120 108l76 -83l-196 -165zM45 700h572l-343 -564h332v-136h-589l342 564h-314v136z" />
    <glyph glyph-name="zcaron" unicode="&#x17e;" horiz-adv-x="480" 
d="M55 691l77 82l119 -108l120 109l76 -83l-197 -165zM467 482l-212 -352h205v-130h-442l213 352h-200v130h436z" />
    <glyph glyph-name="longs" unicode="&#x17f;" horiz-adv-x="380" 
d="M368 588q-12 3 -22.5 4.5t-24.5 1.5q-13 0 -25 -1.5t-21 -8t-14.5 -18.5t-5.5 -33v-533h-152v368h-87v114h87v42q0 66 17.5 103t44.5 56t59 23.5t61 4.5q27 0 48 -4t35 -9v-110z" />
    <glyph glyph-name="florin" unicode="&#x192;" horiz-adv-x="476" 
d="M-36 -66q11 -3 21.5 -4.5t24.5 -1.5q13 0 24 2t21 8.5t18 19t14 34.5l66 376h-87l20 114h87l7 42q12 66 36 103t54.5 56t63 23.5t61.5 4.5q27 0 47.5 -4t32.5 -9l-19 -110q-11 3 -21.5 4.5t-24.5 1.5q-12 0 -24 -1.5t-22.5 -8t-18 -18.5t-11.5 -33l-9 -51h112l-20 -114
h-112l-65 -370q-11 -66 -35.5 -103t-55 -56t-63.5 -23.5t-61 -4.5q-27 0 -47.5 4t-32.5 9z" />
    <glyph glyph-name="Aringacute" unicode="&#x1fa;" horiz-adv-x="660" 
d="M216 807l-31 66l235 114l31 -65zM328 784q-12 0 -20 -8.5t-8 -19.5q0 -10 8.5 -18t19.5 -8t18.5 8t7.5 19t-7.5 19t-18.5 8zM243 212h170l-84 288zM410 757q0 -17 -6.5 -31.5t-17.5 -25.5h17l253 -700h-176l-27 85h-249l-27 -85h-173l249 699h17q-25 22 -25 58
q0 34 24 58t59 24q34 0 58 -24.5t24 -57.5z" />
    <glyph glyph-name="aringacute" unicode="&#x1fb;" horiz-adv-x="635" 
d="M143 823l257 122l46 -97l-257 -121zM305 521q-22 0 -41.5 8.5t-34 23t-23 34t-8.5 41.5t8.5 41.5t23 34t34 23t41.5 8.5t41.5 -8.5t34 -23t23 -34t8.5 -41.5t-8.5 -41.5t-23 -34t-34 -23t-41.5 -8.5zM305 588q17 0 28.5 12t11.5 29t-11.5 28.5t-28.5 11.5t-28 -12.5
t-11 -29.5q0 -16 11 -27.5t28 -11.5zM417 241q0 25 -8.5 47t-23.5 39t-36 27t-47 10t-47 -10t-36 -27t-23.5 -39t-8.5 -47t8.5 -47.5t23.5 -39t36 -26.5t47 -10t47 10t36 26.5t23.5 39t8.5 47.5zM417 482h153v-482h-153v68q-9 -17 -24 -31.5t-34.5 -25t-42.5 -17t-46 -6.5
q-52 0 -95.5 19.5t-74.5 53t-48 80t-17 100.5t17 100.5t48 80t74.5 53t95.5 19.5q23 0 46 -6.5t42.5 -17.5t34.5 -26t24 -31v69z" />
    <glyph glyph-name="AEacute" unicode="&#x1fc;" horiz-adv-x="919" 
d="M416 740l-49 106l276 128l49 -106zM427 213v342l-156 -342h156zM589 570v-159h265v-127h-265v-154h265v-130h-427v86h-212l-38 -86h-176l336 700h517v-130h-265z" />
    <glyph glyph-name="aeacute" unicode="&#x1fd;" horiz-adv-x="961" 
d="M366 498l-48 105l276 128l48 -105zM555 482v-12q25 11 54.5 18t64.5 7q57 0 102.5 -18t78 -48t50 -70t17.5 -84q0 -15 -0.5 -32t-4.5 -39h-346q0 -22 6 -41.5t18.5 -34t32.5 -23t49 -8.5q40 0 60.5 16t28.5 39h150q-6 -34 -24.5 -64t-49 -52.5t-72 -35.5t-92.5 -13
q-36 0 -66.5 7t-56.5 19v-13h-138v68q-9 -17 -24 -31.5t-34.5 -25t-42.5 -17t-46 -6.5q-52 0 -95.5 19.5t-74.5 53t-48 80t-17 100.5t17 100.5t48 80t74.5 53t95.5 19.5q23 0 46 -6.5t42.5 -17.5t34.5 -26t24 -31v69h138zM672 387q-42 0 -70.5 -24.5t-29.5 -70.5h199
q0 43 -27 69t-72 26zM302 118q26 0 47 10t36 26.5t23.5 39t8.5 47.5t-8.5 47.5t-23.5 39.5t-36.5 26.5t-46.5 9.5q-26 0 -47 -10t-36 -27t-23.5 -39t-8.5 -47t8.5 -47.5t23.5 -39t36 -26.5t47 -10z" />
    <glyph glyph-name="Oslashacute" unicode="&#x1fe;" horiz-adv-x="805" 
d="M288 740l-48 106l276 128l48 -106zM443 566q-18 6 -40 6q-48 0 -86 -18.5t-64.5 -49.5t-40.5 -71t-14 -83q0 -51 19.5 -97t56.5 -78zM608 350q0 54 -22 101.5t-62 78.5l-171 -396q11 -3 24.5 -4.5t25.5 -1.5q48 0 86 18.5t64.5 49.5t40.5 71t14 83zM403 -18
q-60 0 -111 15l-39 -90l-81 36l38 88q-43 24 -76 58.5t-55.5 76t-34.5 88.5t-12 96q0 72 25 138.5t73 117.5t117 81.5t156 30.5q27 0 52.5 -3.5t48.5 -9.5l37 84l81 -37l-34 -79q44 -24 78.5 -59t58 -77t36 -89.5t12.5 -97.5q0 -72 -25 -138.5t-73 -117.5t-116.5 -81.5
t-155.5 -30.5z" />
    <glyph glyph-name="oslashacute" unicode="&#x1ff;" horiz-adv-x="599" 
d="M185 509l-48 106l276 128l48 -106zM185 241q0 -57 35 -92l94 213q-10 2 -15 2q-26 0 -47 -10t-36 -26.5t-23 -39t-8 -47.5zM299 118q26 0 47.5 9.5t36.5 26.5t23.5 39t8.5 48q0 59 -41 95l-95 -217q5 -1 10 -1h10zM431 465q66 -32 101 -92t35 -132q0 -52 -18.5 -98
t-53 -80.5t-84 -55t-112.5 -20.5q-41 0 -75 9l-32 -74l-60 26l30 72q-63 32 -96.5 91t-33.5 130q0 52 18.5 98t53 80.5t84 55t111.5 20.5q35 0 70 -8l32 74l61 -26z" />
    <glyph glyph-name="Scommaaccent" unicode="&#x218;" horiz-adv-x="606" 
d="M200 232q0 -57 31 -89t81 -32q39 0 65.5 22.5t26.5 59.5q0 21 -8.5 35.5t-23 25.5t-34.5 19.5t-43 17.5q-48 18 -91.5 36t-75.5 43.5t-51 61.5t-19 89q0 48 20.5 85t54.5 62t78.5 37.5t92.5 12.5q62 0 109 -18t78 -49t46.5 -71t15.5 -85h-162q0 47 -22.5 74t-64.5 27
q-35 0 -60 -18t-25 -54q0 -35 27.5 -55.5t72.5 -36.5q43 -15 87 -32.5t79 -43t57.5 -62t22.5 -88.5q0 -54 -19.5 -96t-54.5 -70.5t-83 -43t-106 -14.5q-56 0 -104.5 16.5t-84 48.5t-55.5 78.5t-20 106.5h162zM225 -103q0 32 22 54.5t53 22.5q38 0 62.5 -27.5t24.5 -70.5
q0 -44 -11 -74t-31.5 -48.5t-50 -27.5t-66.5 -9v48q48 0 69 19.5t23 42.5q-1 -2 -7.5 -4t-12.5 -2q-35 0 -55 22t-20 54z" />
    <glyph glyph-name="scommaaccent" unicode="&#x219;" horiz-adv-x="510" 
d="M183 161q0 -38 21.5 -54.5t55.5 -16.5q28 0 45.5 10.5t17.5 34.5q0 14 -7.5 22.5t-23 16t-40 15t-58.5 18.5q-30 9 -57 19.5t-47.5 25.5t-32.5 38t-12 58q0 75 57.5 111t155.5 36q52 0 91.5 -12.5t65 -34.5t38.5 -52t13 -64h-151q0 30 -15.5 46.5t-47.5 16.5
q-23 0 -40 -10.5t-17 -32.5q0 -13 8 -21.5t23.5 -15.5t38.5 -14t53 -17q32 -9 60 -19.5t49 -26t33.5 -38.5t12.5 -58q0 -43 -17 -72.5t-47 -48t-69.5 -26.5t-84.5 -8q-103 0 -162.5 45t-59.5 130zM176 -95q0 32 22 54.5t54 22.5q38 0 62 -27t24 -71t-11 -73.5t-31 -48.5
t-49.5 -27.5t-66.5 -8.5v48q25 0 41.5 5t27.5 14q21 17 23 43q-2 -2 -8 -4.5t-12 -2.5q-35 0 -55.5 22.5t-20.5 53.5z" />
    <glyph glyph-name="uni021A" unicode="&#x21a;" horiz-adv-x="509" 
d="M173 560h-158v140h479v-140h-159v-560h-162v560zM176 -93q0 32 22 54.5t53 22.5q38 0 62.5 -27.5t24.5 -70.5q0 -44 -11 -74t-31.5 -48.5t-50 -27.5t-66.5 -9v48q48 0 69 19.5t23 42.5q-1 -2 -7.5 -4t-12.5 -2q-35 0 -55 22t-20 54z" />
    <glyph glyph-name="uni021B" unicode="&#x21b;" horiz-adv-x="383" 
d="M17 482h76v143h152v-143h110v-114h-110v-172q0 -27 5 -43t14 -24.5t21 -11.5t26 -3t29 0.5t26 2.5v-117q-17 -3 -42.5 -5.5t-59.5 -2.5q-27 0 -57 4t-55.5 20.5t-42 51t-16.5 94.5v206h-76v114zM141 -93q0 32 22 54.5t54 22.5q38 0 62 -27.5t24 -70.5q0 -44 -11 -74
t-31 -48.5t-49.5 -27.5t-66.5 -9v48q24 0 41 5.5t28 14.5q11 8 16 19.5t7 22.5q-2 -2 -8 -4t-12 -2q-35 0 -55.5 22t-20.5 54z" />
    <glyph glyph-name="hsuperior" unicode="&#x2b0;" horiz-adv-x="400" 
d="M63 700h96v-154q11 20 33 33t54 13q47 0 70 -26q14 -17 19 -39.5t5 -52.5v-159h-97v138q0 26 -8.5 40.5t-31.5 14.5q-44 0 -44 -60v-133h-96v385z" />
    <glyph glyph-name="jsuperior" unicode="&#x2b2;" horiz-adv-x="248" 
d="M65 670q0 25 17.5 42.5t43.5 17.5t43.5 -17.5t17.5 -42.5q0 -24 -17.5 -41.5t-43.5 -17.5t-43.5 17.5t-17.5 41.5zM177 287q0 -29 -6.5 -47t-17.5 -28.5t-26.5 -14t-33.5 -3.5q-17 0 -35.5 2t-28.5 5v72q13 -3 23 -3q24 0 24 26v290h101v-299z" />
    <glyph glyph-name="wsuperior" unicode="&#x2b7;" horiz-adv-x="520" 
d="M260 469l-45 -154h-88l-98 271h102l45 -154l38 154h91l39 -154l45 154h103l-99 -271h-87z" />
    <glyph glyph-name="ysuperior" unicode="&#x2b8;" horiz-adv-x="413" 
d="M200 194q-74 0 -107 27.5t-33 78.5h100q0 -17 10 -27.5t33 -10.5q25 0 35.5 13t10.5 44v43q-11 -22 -34 -34.5t-55 -12.5q-24 0 -42.5 7.5t-29.5 20.5q-14 16 -18.5 38t-4.5 52v153h100v-138q0 -26 9 -40.5t32 -14.5q43 0 43 60v133h102v-260q0 -36 -7.5 -61.5t-25.5 -41
t-47 -22.5t-71 -7z" />
    <glyph glyph-name="apostrophemod" unicode="&#x2bc;" horiz-adv-x="283" 
d="M60 662q0 32 22.5 55t54.5 23q39 0 62.5 -27t23.5 -72q0 -88 -41.5 -123.5t-117.5 -36.5v49q25 0 41.5 5.5t27.5 14.5t16.5 20t7.5 22q-2 -2 -8 -3.5t-12 -1.5q-35 0 -56 21.5t-21 53.5z" />
    <glyph glyph-name="circumflex" unicode="&#x2c6;" horiz-adv-x="488" 
d="M242 842l196 -157l-79 -88l-117 94l-116 -93l-80 87z" />
    <glyph glyph-name="caron" unicode="&#x2c7;" horiz-adv-x="461" 
d="M48 761l73 88l109 -98l110 98l73 -88l-183 -157z" />
    <glyph glyph-name="breve" unicode="&#x2d8;" horiz-adv-x="546" 
d="M173 855q11 -33 35 -53.5t65 -20.5t64.5 20.5t35.5 53.5h116q-7 -39 -26.5 -71t-48 -54.5t-65 -34.5t-76.5 -12q-41 0 -77 12t-64.5 34.5t-48 54.5t-26.5 71h116z" />
    <glyph glyph-name="dotaccent" unicode="&#x2d9;" horiz-adv-x="496" 
d="M153 622q0 19 7.5 36.5t20 30t29.5 20t37 7.5t37.5 -7.5t30.5 -20t20.5 -30t7.5 -36.5t-7.5 -36t-20.5 -29.5t-30.5 -20t-37.5 -7.5t-37 7.5t-29.5 20t-20 29.5t-7.5 36z" />
    <glyph glyph-name="ring" unicode="&#x2da;" horiz-adv-x="496" 
d="M248 846q28 0 52.5 -10.5t42.5 -29t28.5 -43t10.5 -51.5t-10.5 -51.5t-28.5 -43t-42.5 -29t-52.5 -10.5t-52.5 10.5t-43 29t-29 43t-10.5 51.5q0 28 10.5 52.5t29 42.5t43 28.5t52.5 10.5zM248 758q-20 0 -32.5 -14t-12.5 -32q0 -17 13.5 -30.5t31.5 -13.5t31 13.5
t13 31.5t-12.5 31.5t-31.5 13.5z" />
    <glyph glyph-name="ogonek" unicode="&#x2db;" horiz-adv-x="477" 
d="M348 -197q-20 -7 -43 -11t-52 -4q-65 0 -95.5 28.5t-30.5 68.5q0 32 19.5 59t59.5 56h98q-10 -7 -20 -14.5t-18 -16.5t-13 -20.5t-5 -26.5q0 -21 12 -37t34 -16q12 0 27 3t29 9z" />
    <glyph glyph-name="tilde" unicode="&#x2dc;" horiz-adv-x="513" 
d="M61 662q24 14 41 22t30 11.5t22 4t17 0.5q11 0 32 -4t43.5 -9.5t43 -9.5t31.5 -4q9 0 16.5 1t16.5 4t21 8t31 14l46 -90q-42 -32 -72 -38.5t-44 -6.5q-12 0 -33 4t-43.5 9t-43 9t-30.5 4q-22 0 -39 -6.5t-36 -14.5z" />
    <glyph glyph-name="hungarumlaut" unicode="&#x2dd;" horiz-adv-x="509" 
d="M189 747l106 -61l-169 -146l-62 28zM384 747l106 -61l-169 -146l-62 28z" />
    <glyph glyph-name="xsuperior" unicode="&#x2e3;" horiz-adv-x="370" 
d="M341 315h-116l-40 73l-40 -73h-117l97 137l-95 134h117l38 -71l38 71h117l-95 -134z" />
    <glyph glyph-name="Delta" unicode="&#x394;" horiz-adv-x="660" 
d="M656 0h-652l250 700h149zM218 127h220l-109 373z" />
    <glyph glyph-name="Omega" unicode="&#x3a9;" horiz-adv-x="723" 
d="M362 567q-40 0 -70 -14t-50.5 -37t-30.5 -53.5t-10 -64.5q0 -32 7.5 -61t23.5 -53t40.5 -41.5t57.5 -24.5v-218h-275v127h150v15q-79 36 -122.5 105.5t-43.5 156.5q0 61 22 116.5t64 98t102 68t135 25.5t134.5 -25.5t101.5 -68t64 -98t22 -116.5q0 -43 -11 -83
t-32.5 -73.5t-52.5 -60.5t-70 -45v-15h150v-127h-275v218q33 7 57.5 24.5t40.5 41.5t23.5 53t7.5 61q0 34 -10 64.5t-30 53.5t-50 37t-70 14z" />
    <glyph glyph-name="mu" unicode="&#x3bc;" 
d="M65 482h152v-249q1 -51 19.5 -83t65.5 -32q48 0 70.5 33t22.5 89v242h153v-482h-153v69q-39 -71 -137 -79q-23 0 -41 6v-214h-152v700z" />
    <glyph glyph-name="pi" unicode="&#x3c0;" 
d="M592 367h-70v-367h-153v367h-125v-367h-153v367h-70v115h571v-115z" />
    <glyph glyph-name="Wgrave" unicode="&#x1e80;" horiz-adv-x="1035" 
d="M355 868l49 106l276 -128l-49 -106zM518 440l-139 -440h-133l-247 700h171l143 -459l142 459h125l143 -459l142 459h171l-247 -700h-132z" />
    <glyph glyph-name="wgrave" unicode="&#x1e81;" horiz-adv-x="803" 
d="M239 637l49 106l276 -128l-49 -106zM402 307l-99 -307h-124l-180 482h158l89 -287l85 287h141l85 -287l89 287h158l-180 -482h-124z" />
    <glyph glyph-name="Wacute" unicode="&#x1e82;" horiz-adv-x="1035" 
d="M404 740l-49 106l276 128l49 -106zM518 440l-139 -440h-133l-247 700h171l143 -459l142 459h125l143 -459l142 459h171l-247 -700h-132z" />
    <glyph glyph-name="wacute" unicode="&#x1e83;" horiz-adv-x="803" 
d="M288 509l-49 106l276 128l49 -106zM402 307l-99 -307h-124l-180 482h158l89 -287l85 287h141l85 -287l89 287h158l-180 -482h-124z" />
    <glyph glyph-name="Wdieresis" unicode="&#x1e84;" horiz-adv-x="1035" 
d="M305 863q0 19 7 36t19.5 29.5t29 19.5t35.5 7q20 0 37 -7t29.5 -19.5t19.5 -29.5t7 -36q0 -37 -26.5 -63.5t-66.5 -26.5q-19 0 -35.5 7t-29 19.5t-19.5 29t-7 34.5zM546 863q0 19 7 36t19.5 29.5t29 19.5t35.5 7t36 -7t29.5 -19.5t19.5 -29.5t7 -36q0 -37 -26.5 -63.5
t-65.5 -26.5q-19 0 -35.5 7t-29 19.5t-19.5 29t-7 34.5zM518 440l-139 -440h-133l-247 700h171l143 -459l142 459h125l143 -459l142 459h171l-247 -700h-132z" />
    <glyph glyph-name="wdieresis" unicode="&#x1e85;" horiz-adv-x="803" 
d="M189 629q0 19 7 36t19.5 29.5t29 19.5t35.5 7q20 0 37 -7t29.5 -19.5t19.5 -29.5t7 -36q0 -37 -26.5 -63.5t-66.5 -26.5q-19 0 -35.5 7t-29 19.5t-19.5 29t-7 34.5zM430 629q0 19 7 36t19.5 29.5t29 19.5t35.5 7t36 -7t29.5 -19.5t19.5 -29.5t7 -36q0 -37 -26.5 -63.5
t-65.5 -26.5q-19 0 -35.5 7t-29 19.5t-19.5 29t-7 34.5zM402 307l-99 -307h-124l-180 482h158l89 -287l85 287h141l85 -287l89 287h158l-180 -482h-124z" />
    <glyph glyph-name="Ygrave" unicode="&#x1ef2;" horiz-adv-x="641" 
d="M158 868l48 106l276 -128l-48 -106zM302 0h-179l129 263l-248 437h189l149 -275l128 275h179z" />
    <glyph glyph-name="ygrave" unicode="&#x1ef3;" horiz-adv-x="615" 
d="M145 637l48 106l276 -128l-48 -106zM303 -231q-59 0 -102.5 12t-75.5 38q-29 23 -47.5 59t-18.5 85h153q2 -41 28.5 -62.5t64.5 -21.5q44 0 69 21.5t25 77.5v99q-20 -39 -59.5 -60t-94.5 -21q-48 0 -83.5 16t-55.5 42q-23 28 -30 62.5t-7 86.5v279h152v-247
q0 -52 18.5 -84.5t66.5 -32.5t70.5 33t22.5 89v242h153v-494q0 -57 -18 -99t-48 -68q-33 -27 -76.5 -39.5t-106.5 -12.5z" />
    <glyph glyph-name="thinspace" unicode="&#x2009;" horiz-adv-x="204" 
 />
    <glyph glyph-name="endash" unicode="&#x2013;" horiz-adv-x="503" 
d="M40 236v122h423v-122h-423z" />
    <glyph glyph-name="emdash" unicode="&#x2014;" horiz-adv-x="1006" 
d="M45 236v122h916v-122h-916z" />
    <glyph glyph-name="quoteleft" unicode="&#x2018;" horiz-adv-x="298" 
d="M252 516q0 -40 -27.5 -68t-67.5 -28q-48 0 -77.5 33.5t-29.5 88.5q0 54 13.5 92t38.5 61t61.5 34t83.5 11v-60q-30 0 -51 -7t-34 -18q-14 -11 -21 -24.5t-9 -27.5q2 2 9.5 4.5t15.5 2.5q44 0 69.5 -27.5t25.5 -66.5z" />
    <glyph glyph-name="quoteright" unicode="&#x2019;" horiz-adv-x="298" 
d="M46 643q0 41 27.5 69t67.5 28q48 0 77.5 -34t29.5 -88t-13 -92t-38.5 -61t-62 -34t-83.5 -11v59q31 0 51.5 7t34.5 18t20.5 25t8.5 28q-2 -2 -9.5 -4.5t-15.5 -2.5q-44 0 -69.5 27.5t-25.5 65.5z" />
    <glyph glyph-name="quotesinglbase" unicode="&#x201a;" horiz-adv-x="298" 
d="M46 75q0 41 27.5 69t67.5 28q48 0 77.5 -34t29.5 -88t-13 -92t-38.5 -61t-62 -34t-83.5 -11v59q31 0 51.5 7t34.5 18t20.5 25t8.5 28q-2 -2 -9.5 -4.5t-15.5 -2.5q-44 0 -69.5 27.5t-25.5 65.5z" />
    <glyph glyph-name="quotedblleft" unicode="&#x201c;" horiz-adv-x="523" 
d="M252 516q0 -40 -27.5 -68t-67.5 -28q-48 0 -77.5 33.5t-29.5 88.5q0 54 13.5 92t38.5 61t61.5 34t83.5 11v-60q-30 0 -51 -7t-34 -18q-14 -11 -21 -24.5t-9 -27.5q2 2 9.5 4.5t15.5 2.5q44 0 69.5 -27.5t25.5 -66.5zM477 516q0 -40 -27.5 -68t-67.5 -28q-48 0 -77.5 33.5
t-29.5 88.5q0 54 13 92t38.5 61t62 34t83.5 11v-60q-30 0 -51 -7t-35 -18t-20.5 -24.5t-8.5 -27.5q2 2 9.5 4.5t15.5 2.5q44 0 69.5 -27.5t25.5 -66.5z" />
    <glyph glyph-name="quotedblright" unicode="&#x201d;" horiz-adv-x="523" 
d="M271 643q0 41 27.5 69t67.5 28q48 0 77.5 -34t29.5 -88t-13.5 -92t-38.5 -61t-62 -34t-83 -11v59q30 0 51 7t34 18q14 11 21 25t9 28q-2 -2 -9.5 -4.5t-15.5 -2.5q-44 0 -69.5 27.5t-25.5 65.5zM46 643q0 41 27.5 69t67.5 28q48 0 77.5 -34t29.5 -88t-13 -92t-38.5 -61
t-62 -34t-83.5 -11v59q31 0 51.5 7t34.5 18t20.5 25t8.5 28q-2 -2 -9.5 -4.5t-15.5 -2.5q-44 0 -69.5 27.5t-25.5 65.5z" />
    <glyph glyph-name="quotedblbase" unicode="&#x201e;" horiz-adv-x="523" 
d="M271 75q0 41 27.5 69t67.5 28q48 0 77.5 -34t29.5 -88t-13.5 -92t-38.5 -61t-62 -34t-83 -11v59q30 0 51 7t34 18q14 11 21 25t9 28q-2 -2 -9.5 -4.5t-15.5 -2.5q-44 0 -69.5 27.5t-25.5 65.5zM46 75q0 41 27.5 69t67.5 28q48 0 77.5 -34t29.5 -88t-13 -92t-38.5 -61
t-62 -34t-83.5 -11v59q31 0 51.5 7t34.5 18t20.5 25t8.5 28q-2 -2 -9.5 -4.5t-15.5 -2.5q-44 0 -69.5 27.5t-25.5 65.5z" />
    <glyph glyph-name="dagger" unicode="&#x2020;" horiz-adv-x="466" 
d="M171 -182v531h-116v112h116v256h124v-256h115v-112h-115v-531h-124z" />
    <glyph glyph-name="daggerdbl" unicode="&#x2021;" horiz-adv-x="466" 
d="M295 717v-235h115v-110h-115v-263h115v-109h-115v-182h-124v182h-116v109h116v263h-116v110h116v235h124z" />
    <glyph glyph-name="bullet" unicode="&#x2022;" horiz-adv-x="363" 
d="M47 312q0 28 10.5 52.5t28.5 42.5t42.5 28.5t52.5 10.5t53 -10.5t43 -28.5t28.5 -42.5t10.5 -52.5q0 -27 -10.5 -51.5t-28.5 -42.5t-43 -28.5t-53 -10.5t-52.5 10.5t-42.5 28.5t-28.5 42.5t-10.5 51.5z" />
    <glyph glyph-name="ellipsis" unicode="&#x2026;" horiz-adv-x="986" 
d="M50 91q0 21 8 39.5t21.5 32t32 21.5t39.5 8t39.5 -8t32 -21.5t21.5 -32t8 -39.5t-8 -39t-21.5 -31.5t-32 -21.5t-39.5 -8t-39.5 8t-32 21.5t-21.5 31.5t-8 39zM392 90q0 21 8 39.5t21.5 32t32 21.5t39.5 8t39.5 -8t32 -21.5t21.5 -32t8 -39.5t-8 -39t-21.5 -31.5
t-32 -21.5t-39.5 -8t-39.5 8t-32 21.5t-21.5 31.5t-8 39zM734 90q0 21 8 39t21.5 31.5t32 21.5t39.5 8t39.5 -8t32 -21.5t21.5 -31.5t8 -39t-8 -39t-21.5 -31.5t-32 -21.5t-39.5 -8t-39.5 8t-32 21.5t-21.5 31.5t-8 39z" />
    <glyph glyph-name="perthousand" unicode="&#x2030;" horiz-adv-x="1315" 
d="M618 754l106 -53l-400 -754l-105 53zM72 570q0 28 10.5 53.5t30.5 44.5t49 30t65 11t64.5 -11t48.5 -30t31 -44.5t11 -53.5v-125q0 -28 -11 -53.5t-31 -44.5t-48.5 -30t-64.5 -11t-65 11t-49 30t-30.5 44.5t-10.5 53.5v125zM275 570q0 21 -13 36.5t-35 15.5t-35 -15.5
t-13 -36.5v-125q0 -21 13 -36.5t35 -15.5t35 15.5t13 36.5v125zM727 394q36 0 64.5 -11t48.5 -30t31 -44.5t11 -53.5v-125q0 -28 -11 -53.5t-31 -44.5t-48.5 -30t-64.5 -11t-65 11t-49 30t-30.5 44.5t-10.5 53.5v125q0 28 10.5 53.5t30.5 44.5t49 30t65 11zM1242 130
q0 -28 -11 -53.5t-31 -44.5t-48.5 -30t-64.5 -11t-64.5 11t-49 30t-31 44.5t-10.5 53.5v125q0 28 10.5 53.5t31 44.5t49 30t64.5 11t64.5 -11t48.5 -30t31 -44.5t11 -53.5v-125zM727 307q-22 0 -35 -15.5t-13 -36.5v-125q0 -21 13 -36.5t35 -15.5t35 15.5t13 36.5v125
q0 21 -13 36.5t-35 15.5zM1039 130q0 -21 13 -36.5t35 -15.5q23 0 35.5 15.5t12.5 36.5v125q0 21 -12.5 36.5t-35.5 15.5q-22 0 -35 -15.5t-13 -36.5v-125z" />
    <glyph glyph-name="guilsinglleft" unicode="&#x2039;" horiz-adv-x="292" 
d="M250 78l-213 173v80l213 173v-133l-103 -80l103 -80v-133z" />
    <glyph glyph-name="guilsinglright" unicode="&#x203a;" horiz-adv-x="292" 
d="M42 211l102 80l-102 80v133l213 -173v-80l-213 -173v133z" />
    <glyph glyph-name="fraction" unicode="&#x2044;" horiz-adv-x="205" 
d="M250 754l105 -53l-400 -754l-105 53z" />
    <glyph glyph-name="zerosuperior" unicode="&#x2070;" horiz-adv-x="413" 
d="M52 570q0 28 10.5 53.5t30.5 44.5t48.5 30t64.5 11t64.5 -11t49 -30t31.5 -44.5t11 -53.5v-125q0 -28 -11 -53.5t-31.5 -44.5t-49 -30t-64.5 -11t-64.5 11t-48.5 30t-30.5 44.5t-10.5 53.5v125zM255 570q0 21 -13 36.5t-36 15.5q-22 0 -34.5 -15.5t-12.5 -36.5v-125
q0 -21 12.5 -36.5t34.5 -15.5q23 0 36 15.5t13 36.5v125z" />
    <glyph glyph-name="foursuperior" unicode="&#x2074;" horiz-adv-x="416" 
d="M222 415h-163v285h107v-197h56v100h106v-100h43v-88h-43v-100h-106v100z" />
    <glyph glyph-name="fivesuperior" unicode="&#x2075;" horiz-adv-x="420" 
d="M65 700h279v-78h-179v-72q11 16 31.5 24t43.5 8q33 0 56.5 -12t39 -30.5t23 -42t7.5 -47.5q0 -30 -10.5 -56t-30 -45.5t-48.5 -31t-66 -11.5q-38 0 -67 11.5t-48.5 31t-30 45t-10.5 54.5h103q0 -23 14 -40t39 -17q24 0 38.5 17t14.5 42q0 22 -14 39t-39 17
q-20 0 -30.5 -8t-18.5 -22h-97v224z" />
    <glyph glyph-name="sixsuperior" unicode="&#x2076;" horiz-adv-x="402" 
d="M200 307q-37 0 -66 11.5t-48.5 31t-30 45.5t-10.5 55q0 46 22 80l112 170h120l-74 -110q9 -2 17 -5l16 -6q47 -13 72.5 -48t25.5 -81q0 -29 -10.5 -55t-30.5 -45.5t-49 -31t-66 -11.5zM200 393q25 0 39 16.5t14 40.5q0 23 -14 39.5t-39 16.5q-24 0 -38.5 -16.5
t-14.5 -39.5q0 -24 14.5 -40.5t38.5 -16.5z" />
    <glyph glyph-name="sevensuperior" unicode="&#x2077;" horiz-adv-x="372" 
d="M347 700l-164 -385h-115l127 297h-147v88h299z" />
    <glyph glyph-name="eightsuperior" unicode="&#x2078;" horiz-adv-x="410" 
d="M205 306q-74 0 -114 34.5t-40 83.5q0 33 20 58.5t46 32.5q-23 8 -39.5 31t-16.5 52q0 46 37.5 78.5t106.5 32.5t106.5 -32.5t37.5 -78.5q0 -29 -16 -52t-40 -31q26 -8 46 -33t20 -58q0 -24 -10.5 -45.5t-30 -37.5t-48 -25.5t-65.5 -9.5zM205 551q21 0 32.5 12.5
t11.5 29.5t-11.5 29.5t-32.5 12.5t-32.5 -12.5t-11.5 -29.5t11.5 -29.5t32.5 -12.5zM205 380q24 0 37.5 14.5t13.5 32.5q0 19 -13 33t-38 14t-38 -13.5t-13 -33.5q0 -19 13.5 -33t37.5 -14z" />
    <glyph glyph-name="ninesuperior" unicode="&#x2079;" horiz-adv-x="402" 
d="M104 315l74 110q-63 7 -97.5 46t-34.5 94q0 29 10.5 55t30.5 45.5t49 31t66 11.5t66 -11.5t49 -31t30.5 -45.5t10.5 -55q0 -46 -24 -80l-111 -170h-119zM202 622q-24 0 -38.5 -16.5t-14.5 -40.5q0 -23 14.5 -39.5t38.5 -16.5t38.5 16.5t14.5 39.5q0 24 -14.5 40.5
t-38.5 16.5z" />
    <glyph glyph-name="plussuperior" unicode="&#x207a;" horiz-adv-x="410" 
d="M165 349v84h-82v77h82v84h80v-84h82v-77h-82v-84h-80z" />
    <glyph glyph-name="minussuperior" unicode="&#x207b;" horiz-adv-x="410" 
d="M83 433v77h244v-77h-244z" />
    <glyph glyph-name="equalsuperior" unicode="&#x207c;" horiz-adv-x="410" 
d="M83 487v77h244v-77h-244zM83 378v77h244v-77h-244z" />
    <glyph glyph-name="parenleftsuperior" unicode="&#x207d;" horiz-adv-x="283" 
d="M234 645q-34 0 -52.5 -22t-18.5 -53v-213q0 -30 18.5 -52t52.5 -22v-89q-41 0 -73 13t-54.5 35t-34.5 52t-12 63v213q0 33 12 63t34.5 52t54.5 35t73 13v-88z" />
    <glyph glyph-name="parenrightsuperior" unicode="&#x207e;" horiz-adv-x="283" 
d="M49 733q40 0 72.5 -13t54.5 -35t34 -52t12 -63v-213q0 -33 -12 -63t-34 -52t-54.5 -35t-72.5 -13v89q33 0 52 22t19 52v213q0 31 -19 53t-52 22v88z" />
    <glyph glyph-name="nsuperior" unicode="&#x207f;" horiz-adv-x="409" 
d="M63 586h101v-40q22 46 89 46q49 0 73 -27q14 -16 18.5 -38t4.5 -52v-160h-101v138q0 26 -8.5 40.5t-31.5 14.5q-44 0 -44 -60v-133h-101v271z" />
    <glyph glyph-name="zeroinferior" unicode="&#x2080;" horiz-adv-x="413" 
d="M52 55q0 28 10.5 53.5t30.5 44.5t48.5 30t64.5 11t64.5 -11t49 -30t31.5 -44.5t11 -53.5v-125q0 -28 -11 -53.5t-31.5 -44.5t-49 -30t-64.5 -11t-64.5 11t-48.5 30t-30.5 44.5t-10.5 53.5v125zM255 55q0 21 -13 36.5t-36 15.5q-22 0 -34.5 -15.5t-12.5 -36.5v-125
q0 -21 12.5 -36.5t34.5 -15.5q23 0 36 15.5t13 36.5v125z" />
    <glyph glyph-name="oneinferior" unicode="&#x2081;" horiz-adv-x="298" 
d="M46 115q29 0 47.5 4.5t29 13.5t14.5 22t4 30h92v-385h-108v243h-79v72z" />
    <glyph glyph-name="twoinferior" unicode="&#x2082;" horiz-adv-x="397" 
d="M54 -200q0 48 7.5 80.5t20.5 55t31.5 38t41.5 29.5q41 23 62.5 39t21.5 41q0 20 -10.5 28.5t-25.5 8.5q-18 0 -29 -11.5t-11 -39.5h-107q0 24 8.5 46.5t26 40t45.5 28t67 10.5q27 0 52.5 -6.5t45 -20.5t31.5 -36.5t12 -53.5q0 -23 -8.5 -41.5t-22.5 -34t-31.5 -28
t-35.5 -22.5q-19 -11 -32 -19.5t-21.5 -16t-12 -15t-3.5 -17.5h164v-83h-287v0z" />
    <glyph glyph-name="threeinferior" unicode="&#x2083;" horiz-adv-x="404" 
d="M154 -70q0 -58 47 -58q21 0 31.5 14t10.5 31q0 22 -11 33.5t-37 11.5h-41v79h41q26 0 35.5 10.5t9.5 29.5q0 20 -10 29.5t-27 9.5q-24 0 -32 -14t-8 -37h-107q0 23 7 45.5t24 40t45 28.5t71 11q28 0 54 -6t45.5 -19t31.5 -34t12 -50q0 -32 -18.5 -55.5t-41.5 -30.5
q26 -8 45 -32.5t19 -60.5q0 -29 -12 -50.5t-32.5 -36t-46.5 -21.5t-54 -7q-42 0 -72 10.5t-49 29.5t-28 44.5t-9 54.5h107z" />
    <glyph glyph-name="fourinferior" unicode="&#x2084;" horiz-adv-x="416" 
d="M222 -100h-163v285h107v-197h56v100h106v-100h43v-88h-43v-100h-106v100z" />
    <glyph glyph-name="fiveinferior" unicode="&#x2085;" horiz-adv-x="420" 
d="M65 185h279v-78h-179v-72q11 16 31.5 24t43.5 8q33 0 56.5 -12t39 -30.5t23 -42t7.5 -47.5q0 -30 -10.5 -56t-30 -45.5t-48.5 -31t-66 -11.5q-38 0 -67 11.5t-48.5 31t-30 45t-10.5 54.5h103q0 -23 14 -40t39 -17q24 0 38.5 17t14.5 42q0 22 -14 39t-39 17
q-20 0 -30.5 -8t-18.5 -22h-97v224z" />
    <glyph glyph-name="sixinferior" unicode="&#x2086;" horiz-adv-x="402" 
d="M200 -208q-37 0 -66 11.5t-48.5 31t-30 45.5t-10.5 55q0 46 22 80l112 170h120l-74 -110q9 -2 17 -5l16 -6q47 -13 72.5 -48t25.5 -81q0 -29 -10.5 -55t-30.5 -45.5t-49 -31t-66 -11.5zM200 -122q25 0 39 16.5t14 40.5q0 23 -14 39.5t-39 16.5q-24 0 -38.5 -16.5
t-14.5 -39.5q0 -24 14.5 -40.5t38.5 -16.5z" />
    <glyph glyph-name="seveninferior" unicode="&#x2087;" horiz-adv-x="372" 
d="M347 185l-164 -385h-115l127 297h-147v88h299z" />
    <glyph glyph-name="eightinferior" unicode="&#x2088;" horiz-adv-x="410" 
d="M205 -209q-74 0 -114 34.5t-40 83.5q0 33 20 58.5t46 32.5q-23 8 -39.5 31t-16.5 52q0 46 37.5 78.5t106.5 32.5t106.5 -32.5t37.5 -78.5q0 -29 -16 -52t-40 -31q26 -8 46 -33t20 -58q0 -24 -10.5 -45.5t-30 -37.5t-48 -25.5t-65.5 -9.5zM205 36q21 0 32.5 12.5
t11.5 29.5t-11.5 29.5t-32.5 12.5t-32.5 -12.5t-11.5 -29.5t11.5 -29.5t32.5 -12.5zM205 -135q24 0 37.5 14.5t13.5 32.5q0 19 -13 33t-38 14t-38 -13.5t-13 -33.5q0 -19 13.5 -33t37.5 -14z" />
    <glyph glyph-name="nineinferior" unicode="&#x2089;" horiz-adv-x="402" 
d="M104 -200l74 110q-63 7 -97.5 46t-34.5 94q0 29 10.5 55t30.5 45.5t49 31t66 11.5t66 -11.5t49 -31t30.5 -45.5t10.5 -55q0 -46 -24 -80l-111 -170h-119zM202 107q-24 0 -38.5 -16.5t-14.5 -40.5q0 -23 14.5 -39.5t38.5 -16.5t38.5 16.5t14.5 39.5q0 24 -14.5 40.5
t-38.5 16.5z" />
    <glyph glyph-name="parenleftinferior" unicode="&#x208d;" horiz-adv-x="283" 
d="M234 130q-34 0 -52.5 -22t-18.5 -53v-213q0 -30 18.5 -52t52.5 -22v-89q-41 0 -73 13t-54.5 35t-34.5 52t-12 63v213q0 33 12 63t34.5 52t54.5 35t73 13v-88z" />
    <glyph glyph-name="parenrightinferior" unicode="&#x208e;" horiz-adv-x="283" 
d="M49 218q40 0 72.5 -13t54.5 -35t34 -52t12 -63v-213q0 -33 -12 -63t-34 -52t-54.5 -35t-72.5 -13v89q33 0 52 22t19 52v213q0 31 -19 53t-52 22v88z" />
    <glyph glyph-name="Euro" unicode="&#x20ac;" horiz-adv-x="630" 
d="M604 236q0 -51 -19 -96.5t-54 -80t-84.5 -54.5t-110.5 -20t-110.5 20t-84 54.5t-53 80t-18.5 96.5h-62l20 88h42v52h-62l20 88h42q0 51 18.5 96.5t53 80t84 54.5t110.5 20q59 0 107 -18.5t82.5 -50t54.5 -74t23 -90.5h-162q-5 41 -32.5 68.5t-72.5 27.5q-24 0 -43.5 -9
t-33 -24.5t-20.5 -36.5t-7 -44h171l-20 -88h-151v-52h171l-20 -88h-151q0 -23 7 -44t20.5 -36.5t33 -24.5t43.5 -9t44 9t33.5 24.5t21 36.5t7.5 44h162z" />
    <glyph glyph-name="afii61289" unicode="&#x2113;" horiz-adv-x="477" 
d="M309 -14q-29 0 -60.5 3t-58.5 18t-45.5 46t-22.5 87l-63 -43l-57 109l117 77v224q0 100 47.5 155t129.5 55q48 0 81 -16.5t52.5 -43t28 -59t8.5 -65.5q0 -49 -16.5 -90t-45 -77.5t-66 -69t-80.5 -63.5v-58q0 -24 7.5 -38t19.5 -21t27.5 -9t30.5 -2q26 0 46.5 2t33.5 5
v-114q-35 -12 -114 -12zM305 605q-22 0 -33 -23t-13 -58q0 -3 -0.5 -24t-0.5 -46v-46.5v-24.5q45 39 65 73.5t20 76.5q0 28 -8 50t-30 22z" />
    <glyph glyph-name="afii61352" unicode="&#x2116;" horiz-adv-x="1159" 
d="M914 299q-53 0 -94 16.5t-69 44.5t-43 65.5t-15 79.5t15 79.5t43 65.5t69 44.5t94 16.5q52 0 93.5 -16.5t69.5 -44.5t43 -65.5t15 -79.5t-15 -79.5t-43 -65.5t-69.5 -44.5t-93.5 -16.5zM914 414q38 0 61.5 26.5t23.5 64.5t-23.5 64t-61.5 26t-61.5 -26t-23.5 -64
t23.5 -64.5t61.5 -26.5zM489 244v456h161v-700h-169l-252 450v-450h-162v700h169zM693 172v109h442v-109h-442z" />
    <glyph glyph-name="trademark" unicode="&#x2122;" horiz-adv-x="837" 
d="M306 700v-90h-86v-317h-103v317h-85v90h274zM350 700h157l76 -259l76 259h155v-407h-101v302l-88 -302h-83l-91 302v-302h-101v407z" />
    <glyph glyph-name="uni2126" unicode="&#x2126;" horiz-adv-x="723" 
d="M362 567q-40 0 -70 -14t-50.5 -37t-30.5 -53.5t-10 -64.5q0 -32 7.5 -61t23.5 -53t40.5 -41.5t57.5 -24.5v-218h-275v127h150v15q-79 36 -122.5 105.5t-43.5 156.5q0 61 22 116.5t64 98t102 68t135 25.5t134.5 -25.5t101.5 -68t64 -98t22 -116.5q0 -43 -11 -83
t-32.5 -73.5t-52.5 -60.5t-70 -45v-15h150v-127h-275v218q33 7 57.5 24.5t40.5 41.5t23.5 53t7.5 61q0 34 -10 64.5t-30 53.5t-50 37t-70 14z" />
    <glyph glyph-name="estimated" unicode="&#x212e;" horiz-adv-x="533" 
d="M167 247v-210q22 -13 49 -20t59 -7q37 0 68 10t55.5 26.5t41 39t24.5 46.5h22q-8 -29 -26 -55.5t-45 -46t-62.5 -31t-77.5 -11.5q-61 0 -106.5 21t-75.5 56.5t-44.5 81t-14.5 95.5q0 54 16 100.5t46 80.5t74.5 53t101.5 19q46 0 86.5 -16.5t71 -46t48 -69.5t17.5 -86v-12
t-1 -18h-327zM272 473q-61 0 -105 -26v-178h198v180q-20 11 -44 17.5t-49 6.5z" />
    <glyph glyph-name="arrowleft" unicode="&#x2190;" horiz-adv-x="720" 
d="M10 350l260 240l70 -77l-121 -108h491v-111h-490l120 -107l-70 -77z" />
    <glyph glyph-name="arrowup" unicode="&#x2191;" horiz-adv-x="540" 
d="M270 700l240 -260l-77 -71l-108 121v-490h-111v489l-108 -120l-76 71z" />
    <glyph glyph-name="arrowright" unicode="&#x2192;" horiz-adv-x="720" 
d="M710 350l-260 -240l-71 77l121 108h-490v111h489l-120 107q19 21 35 38q14 14 24.5 26.5t11.5 12.5z" />
    <glyph glyph-name="arrowdown" unicode="&#x2193;" horiz-adv-x="540" 
d="M270 0l-240 260l76 71l109 -122v491h110v-490l108 121l77 -71z" />
    <glyph glyph-name="uni2196" unicode="&#x2196;" horiz-adv-x="593" 
d="M30 597l353 -13l-5 -105l-162 9l347 -346l-78 -79l-346 346l9 -161l-105 -4z" />
    <glyph glyph-name="uni2197" unicode="&#x2197;" horiz-adv-x="593" 
d="M563 597l-13 -353l-105 4l10 162l-347 -347l-78 79l345 346l-160 -9q-2 29 -3 52q-1 20 -1.5 36t-0.5 17z" />
    <glyph glyph-name="uni2198" unicode="&#x2198;" horiz-adv-x="593" 
d="M563 103l-353 13l5 105l162 -9l-347 346l78 79l346 -346l-9 161l105 4z" />
    <glyph glyph-name="uni2199" unicode="&#x2199;" horiz-adv-x="593" 
d="M30 103l13 353l105 -4l-9 -162l346 347l78 -79l-345 -346l160 9l2 -52q0 -10 0.5 -19t1.5 -17q1 -9 1 -17z" />
    <glyph glyph-name="partialdiff" unicode="&#x2202;" 
d="M300 -20q-60 0 -108 16.5t-81.5 47t-51 74.5t-17.5 99q0 46 17 88.5t48.5 74.5t76.5 51.5t101 19.5q35 0 68.5 -10.5t58.5 -26.5q-3 57 -10.5 92.5t-21 56t-32 28t-42.5 7.5q-46 0 -72.5 -32.5t-26.5 -86.5h-162q0 46 15.5 89.5t48 76.5t81.5 53t116 20q60 0 108.5 -18
t83.5 -62.5t54 -120t19 -191.5q0 -96 -19 -162t-54 -107t-85 -59t-113 -18zM304 326q-25 0 -44.5 -9.5t-33 -25.5t-20.5 -36t-7 -41q0 -47 26.5 -76.5t71.5 -29.5q25 0 46 8t36.5 28t24 55.5t10.5 91.5q-23 17 -48.5 26t-61.5 9z" />
    <glyph glyph-name="uni2206" unicode="&#x2206;" horiz-adv-x="660" 
d="M656 0h-652l250 700h149zM218 127h220l-109 373z" />
    <glyph glyph-name="product" unicode="&#x220f;" horiz-adv-x="700" 
d="M703 653h-70v-871h-162v871h-242v-871h-162v871h-70v141h706v-141z" />
    <glyph glyph-name="summation" unicode="&#x2211;" 
d="M19 -218v141l357 370l-357 366v135h575v-140h-375l356 -346l-356 -380h375v-146h-575z" />
    <glyph glyph-name="minus" unicode="&#x2212;" 
d="M93 223v123h427v-123h-427z" />
    <glyph glyph-name="radical" unicode="&#x221a;" horiz-adv-x="773" 
d="M-4 257h247l88 -285l273 822h177l-376 -1028h-149l-130 355h-130v136z" />
    <glyph glyph-name="infinity" unicode="&#x221e;" horiz-adv-x="846" 
d="M604 503q54 0 95.5 -17.5t69 -47t42 -68t14.5 -81.5t-14.5 -81.5t-42 -68t-69 -47t-95.5 -17.5q-49 0 -94.5 25t-86.5 79q-42 -54 -87 -79t-94 -25q-55 0 -96.5 18t-69 48t-41.5 68.5t-14 79.5t14 79.5t41.5 68.5t69 48t96.5 18q49 0 94 -25t87 -79q41 54 86.5 79
t94.5 25zM243 381q-45 0 -68.5 -27.5t-23.5 -64.5t23.5 -64.5t68.5 -27.5q26 0 58 22t59 70q-27 48 -59 70t-58 22zM603 381q-27 0 -59 -22t-58 -70q26 -48 58 -70t59 -22q45 0 68.5 27.5t23.5 64.5t-23.5 64.5t-68.5 27.5z" />
    <glyph glyph-name="integral" unicode="&#x222b;" horiz-adv-x="327" 
d="M239 -89q0 -47 -10 -77.5t-27.5 -47.5t-41 -23.5t-49.5 -6.5q-29 0 -59 3.5t-44 8.5v114q14 -4 22 -5t17 -1q20 0 30 11t10 37v715q0 47 10.5 77t28 47.5t41 24t49.5 6.5q29 0 59 -3.5t44 -8.5v-114q-14 4 -22.5 5t-16.5 1q-20 0 -30.5 -11t-10.5 -37v-715z" />
    <glyph glyph-name="approxequal" unicode="&#x2248;" 
d="M78 376q26 33 57 46t57 13q27 0 57.5 -9.5t62.5 -22.5q30 -12 59.5 -24t50.5 -12q35 0 63.5 17.5t48.5 37.5v-119q-25 -33 -56 -46t-57 -13q-30 0 -56.5 9.5t-53.5 23.5q-26 14 -57 24.5t-68 10.5q-31 0 -59 -17.5t-49 -37.5v119zM78 195q26 33 57 46t57 13
q27 0 57.5 -9.5t62.5 -22.5q30 -12 59.5 -24t50.5 -12q35 0 63.5 17.5t48.5 37.5v-119q-25 -33 -56 -46t-57 -13q-30 0 -56.5 9.5t-53.5 23.5q-26 14 -57 24.5t-68 10.5q-31 0 -59 -17.5t-49 -37.5v119z" />
    <glyph glyph-name="notequal" unicode="&#x2260;" 
d="M298 132l-44 -104h-116l44 104h-89v122h142l26 59h-168v122h221l44 104h116l-44 -104h90v-122h-143l-26 -59h169v-122h-222z" />
    <glyph glyph-name="lessequal" unicode="&#x2264;" 
d="M520 247l-427 144v120l427 144v-135l-233 -69l233 -69v-135zM93 0v122h427v-122h-427z" />
    <glyph glyph-name="greaterequal" unicode="&#x2265;" 
d="M93 382l233 69l-233 69v135l427 -144v-120l-427 -144v135zM93 0v122h427v-122h-427z" />
    <glyph glyph-name="lozenge" unicode="&#x25ca;" horiz-adv-x="558" 
d="M3 396l190 398h172l189 -398l-188 -396h-173zM279 150l112 246l-112 246l-112 -246z" />
    <glyph glyph-name="commaaccent" unicode="&#xf6c3;" horiz-adv-x="243" 
d="M44 46q0 32 22 54.5t53 22.5q38 0 62.5 -27t24.5 -71t-11 -73.5t-31.5 -48.5t-50 -27.5t-66.5 -8.5v48q25 0 42 5t28 14q20 17 22 43q-2 -2 -7.5 -4.5t-12.5 -2.5q-35 0 -55 22.5t-20 53.5z" />
    <glyph glyph-name="asuperior" unicode="&#xf6e9;" horiz-adv-x="422" 
d="M203 392q25 0 40 17.5t15 40.5q0 24 -15 41t-40 17q-24 0 -39.5 -17t-15.5 -41q0 -23 15.5 -40.5t39.5 -17.5zM359 586v-271h-101v40q-8 -18 -31 -32.5t-52 -14.5q-28 0 -51.5 10.5t-40 29t-26 44.5t-9.5 58q0 31 9.5 57.5t26 45t40 29t51.5 10.5q29 0 52 -14.5t31 -31.5
v40h101z" />
    <glyph glyph-name="bsuperior" unicode="&#xf6ea;" horiz-adv-x="423" 
d="M164 315h-101v385h101v-154q8 17 31 31.5t51 14.5q57 0 92.5 -39.5t35.5 -102.5t-35.5 -102.5t-92.5 -39.5q-28 0 -51 14.5t-31 32.5v-40zM219 392q24 0 39 17.5t15 40.5q0 24 -15 41t-39 17q-25 0 -40 -17t-15 -41q0 -23 15 -40.5t40 -17.5z" />
    <glyph glyph-name="dsuperior" unicode="&#xf6eb;" horiz-adv-x="422" 
d="M203 392q25 0 40 17.5t15 40.5q0 24 -15 41t-40 17q-24 0 -39.5 -17t-15.5 -41q0 -23 15.5 -40.5t39.5 -17.5zM258 355q-8 -18 -31 -32.5t-52 -14.5q-28 0 -51.5 10.5t-40 29t-26 44.5t-9.5 58q0 31 9.5 57.5t26 45t40 29t51.5 10.5q29 0 52 -14.5t31 -31.5v154h101v-385
h-101v40z" />
    <glyph glyph-name="esuperior" unicode="&#xf6ec;" horiz-adv-x="395" 
d="M148 428q0 -21 11 -37t40 -16q20 0 30.5 8.5t15.5 20.5h97q-6 -42 -42.5 -69t-99.5 -27q-73 0 -113.5 39.5t-40.5 102.5q0 30 9.5 56t29 45.5t47.5 31t66 11.5q35 0 63 -10.5t47 -28t29 -40t10 -46.5q0 -17 -3 -41h-196zM198 528q-23 0 -36.5 -13t-13.5 -36h98
q0 23 -13 36t-35 13z" />
    <glyph glyph-name="isuperior" unicode="&#xf6ed;" horiz-adv-x="243" 
d="M61 670q0 25 17.5 42.5t42.5 17.5q26 0 43.5 -17.5t17.5 -42.5q0 -24 -17.5 -41.5t-43.5 -17.5q-25 0 -42.5 17.5t-17.5 41.5zM172 586v-271h-101v271h101z" />
    <glyph glyph-name="lsuperior" unicode="&#xf6ee;" horiz-adv-x="227" 
d="M63 700h101v-385h-101v385z" />
    <glyph glyph-name="msuperior" unicode="&#xf6ef;" horiz-adv-x="559" 
d="M403 315v143q0 50 -35 50q-17 0 -28 -12.5t-11 -45.5v-135h-96v143q0 50 -34 50q-17 0 -28.5 -13t-11.5 -47v-133h-96v271h96v-40q9 19 30 32.5t50 13.5q35 0 53.5 -13.5t26.5 -34.5q11 21 33 34.5t53 13.5q29 0 47 -9t28.5 -24.5t14.5 -36t4 -43.5v-164h-96z" />
    <glyph glyph-name="osuperior" unicode="&#xf6f0;" horiz-adv-x="402" 
d="M201 308q-37 0 -66 11.5t-49 31t-30.5 45t-10.5 54.5q0 30 10.5 56t30.5 45.5t49 31t66 11.5t66 -11.5t49 -31t30.5 -45.5t10.5 -56q0 -29 -10.5 -54.5t-30.5 -45t-49 -31t-66 -11.5zM201 392q25 0 39.5 17t14.5 41q0 25 -14.5 41.5t-39.5 16.5t-40 -16.5t-15 -41.5
q0 -24 15 -41t40 -17z" />
    <glyph glyph-name="rsuperior" unicode="&#xf6f1;" horiz-adv-x="305" 
d="M273 495q-11 3 -18 4t-17 1q-32 0 -53 -18.5t-21 -67.5v-99h-101v271h101v-44q9 20 31 34.5t51 14.5q15 0 27 -4v-92z" />
    <glyph glyph-name="ssuperior" unicode="&#xf6f2;" horiz-adv-x="362" 
d="M218 479q20 -5 37.5 -10.5t30.5 -14.5t20.5 -22t7.5 -34q0 -26 -10.5 -43.5t-28.5 -28t-42 -14.5t-51 -4q-68 0 -101.5 25.5t-33.5 72.5h100q0 -19 10 -27t27 -8q14 0 22 5t8 16q0 13 -14.5 18.5t-50.5 16.5q-19 5 -36.5 10.5t-31 14t-21.5 22t-8 34.5q0 45 34 65.5
t98 20.5q35 0 59 -7t39 -19.5t21.5 -29t6.5 -35.5h-100q0 30 -31 30q-11 0 -19 -4.5t-8 -15.5q0 -13 17 -19t49 -15z" />
    <glyph glyph-name="tsuperior" unicode="&#xf6f3;" horiz-adv-x="283" 
d="M244 315q-11 -2 -26 -3.5t-37 -1.5q-18 0 -36.5 2.5t-33 12t-24 28.5t-9.5 53v108h-40v72h40v79h101v-79h61v-72h-61v-86q0 -27 10.5 -34.5t24.5 -7.5q9 0 16.5 0.5t13.5 1.5v-73z" />
    <glyph glyph-name="apple" unicode="&#xf8ff;" horiz-adv-x="800" 
d="M400 717q84 0 151.5 -30.5t114 -81.5t71.5 -117.5t25 -137.5t-25 -137.5t-71.5 -117.5t-114 -81.5t-151.5 -30.5t-151.5 30.5t-114 81.5t-71.5 117.5t-25 137.5t25 137.5t71.5 117.5t114 81.5t151.5 30.5zM400 695q-76 0 -143 -29q-60 -27 -106 -76q-45 -50 -67 -110
q-24 -63 -24 -130q0 -68 24 -129q22 -62 67 -110q46 -50 106 -76q67 -29 143 -29t142 29q60 26 106 76q45 48 67 110q24 61 24 129q0 67 -24 130q-22 60 -67 110q-46 49 -106 76q-66 29 -142 29zM201 500q0 18 12.5 30.5t29.5 12.5q18 0 30.5 -12.5t12.5 -30.5
q0 -17 -12.5 -30t-30.5 -13q-17 0 -29.5 13t-12.5 30zM498 500q0 18 12.5 30.5t29.5 12.5q18 0 30.5 -12.5t12.5 -30.5q0 -17 -12.5 -30t-30.5 -13q-17 0 -29.5 13t-12.5 30zM219 259l179 268l-110 -243h178v-25h-247zM132 207q0 5 0.5 10t1.5 10q2 5 3.5 10t5.5 10q2 2 9 8
l11 7q5 3 11.5 5.5t12.5 4.5l1 1q4 1 9 8q4 6 4 10q0 5 -0.5 9t-1.5 9l-3 20l17 2q0 -5 0.5 -10t1.5 -10t1.5 -10t0.5 -10q0 -10 -7 -20q-7 -9 -14 -13q-1 0 -2 -0.5t-2 -0.5q-5 -2 -10.5 -4.5t-10.5 -5.5q-4 -1 -10 -5q-4 -4 -6 -5q-3 -5 -5 -13q-1 -5 -1.5 -9t-0.5 -8h-16
zM600 161q2 5 2 9.5v8.5q-2 9 -4 13q-1 3 -3 5q-1 0 -3 2q-2 0 -4 2l-14 5q-8 4 -16.5 8t-16.5 11q-10 7 -18 20l-4 11q-1 4 -2 7t-1 7q-2 8 -3 15.5t-1 15.5q1 5 1 10t2 9l15 -5q0 -2 -0.5 -4.5t-0.5 -5.5v-13q1 -7 1.5 -14t2.5 -13q2 -4 2.5 -7t2.5 -5q3 -6 8 -10.5
t11 -9.5q6 -4 13 -7t13 -6l15 -6q3 -1 7 -5q6 -4 7 -9q5 -9 6 -19v-12t-2 -12zM168 228q25 -15 47 -28t44 -22.5t45.5 -15t51.5 -5.5q21 0 49 1.5t58.5 5t60 11t52.5 19.5q1 0 3 2q-13 -28 -42 -54t-65 -45q-57 -31 -106 -31t-97.5 37.5t-100.5 124.5zM230 169
q15 -22 34 -37t38.5 -24t36.5 -12.5t27 -3.5q25 0 52 9t50 20t39 21t20 13q-43 -8 -81 -15.5t-88 -7.5q-13 0 -30.5 1.5t-35.5 6t-34.5 11.5t-27.5 18z" />
    <glyph glyph-name="commaturn" horiz-adv-x="243" 
d="M205 635q0 -32 -22 -54.5t-54 -22.5q-38 0 -62 27.5t-24 70.5t11 73.5t31 49t49.5 27.5t66.5 9v-48q-24 0 -40.5 -5.5t-27.5 -14.5q-11 -8 -16.5 -19.5t-7.5 -22.5q2 2 8 4t12 2q35 0 55.5 -22t20.5 -54z" />
    <glyph glyph-name="zero.slash" 
d="M306 -15q-62 0 -111 20t-83.5 54.5t-53 79.5t-18.5 96v230q0 51 18.5 96t53 79.5t83.5 54.5t111 20q61 0 110.5 -20t84.5 -54.5t54 -79.5t19 -96v-230q0 -51 -19 -96t-54 -79.5t-84.5 -54.5t-110.5 -20zM201 285q0 -9 1.5 -20.5t4.5 -19.5l139 324q-18 9 -40 9
q-47 0 -74.5 -31t-29.5 -76l-0.5 -8.5t-0.5 -21.5v-30v-34v-92zM271 128q15 -6 35 -6q24 0 43.5 9t33.5 24.5t21.5 36t7.5 43.5v171q0 7 -0.5 20.5t-2.5 20.5z" />
    <glyph glyph-name="zero.tlfslash" 
d="M40 465q0 51 18.5 96t53 79.5t83.5 54.5t111 20q61 0 110.5 -20t84.5 -54.5t54 -79.5t19 -96v-230q0 -51 -19 -96t-54 -79.5t-84.5 -54.5t-110.5 -20q-62 0 -111 20t-83.5 54.5t-53 79.5t-18.5 96v230zM201 309q0 -5 0.5 -14t1 -19t1.5 -18.5t3 -12.5l139 324
q-18 9 -40 9q-47 0 -74.5 -31t-29.5 -76q0 -1 -0.5 -26t-0.5 -55v-55v-26zM412 406q0 7 -0.5 20.5t-2.5 20.5l-138 -319q15 -6 35 -6q24 0 43.5 9t33.5 24.5t21.5 36t7.5 43.5v171z" />
    <glyph glyph-name="zero.tlf" 
d="M40 465q0 51 18.5 96t53 79.5t83.5 54.5t111 20q61 0 110.5 -20t84.5 -54.5t54 -79.5t19 -96v-230q0 -51 -19 -96t-54 -79.5t-84.5 -54.5t-110.5 -20q-62 0 -111 20t-83.5 54.5t-53 79.5t-18.5 96v230zM412 465q0 23 -7.5 43.5t-21.5 36t-33.5 24.5t-43.5 9t-43.5 -9
t-33 -24.5t-21 -36t-7.5 -43.5v-230q0 -23 7.5 -43.5t21 -36t33 -24.5t43.5 -9t43.5 9t33.5 24.5t21.5 36t7.5 43.5v230z" />
    <glyph glyph-name="one.tlf" 
d="M92 577h47q76 0 114 31t46 92h142v-700h-164v463h-185v114z" />
    <glyph glyph-name="two.tlf" 
d="M67 0q0 85 13.5 143t38.5 98t58.5 68t74.5 53q31 18 57.5 34.5t46.5 33.5t31.5 37.5t11.5 46.5q0 42 -23 60.5t-57 18.5q-38 0 -63.5 -23.5t-25.5 -78.5h-161q0 48 16.5 89t48.5 71t78 47t106 17q48 0 91.5 -12.5t76.5 -38t52.5 -66t19.5 -95.5q0 -44 -19 -80t-46.5 -64
t-59.5 -49.5t-58 -36.5q-36 -24 -59.5 -41.5t-37.5 -32.5t-19.5 -31t-5.5 -37h300v-131h-486v0z" />
    <glyph glyph-name="three.tlf" 
d="M202 235q0 -57 29 -88.5t77 -31.5q45 0 68.5 28t23.5 64q0 44 -23 70.5t-80 26.5h-63v125h63q55 0 74.5 24t19.5 62q0 40 -22.5 59t-57.5 19q-52 0 -70.5 -28t-18.5 -74h-162q0 45 14 85.5t44 71t76.5 49t111.5 18.5q49 0 93 -12t78 -36.5t54 -61.5t20 -86
q0 -59 -31 -100t-73 -55q24 -9 44.5 -24t36.5 -36t25 -48.5t9 -60.5q0 -50 -20.5 -89t-55.5 -66t-80.5 -41t-95.5 -14q-65 0 -115 18t-84.5 51t-52 79t-17.5 102h161z" />
    <glyph glyph-name="four.tlf" 
d="M334 193h-279v507h161v-370h118v193h162v-193h84v-137h-84v-193h-162v193z" />
    <glyph glyph-name="five.tlf" 
d="M55 700h473v-126h-324v-156q10 16 26 28t35.5 20t40 12t40.5 4q58 0 101 -20.5t71.5 -54.5t42.5 -77.5t14 -89.5q0 -52 -18.5 -98.5t-53 -81t-84.5 -55t-113 -20.5q-62 0 -111.5 20.5t-84 55t-53 80.5t-18.5 97h157q0 -49 29.5 -84t80.5 -35q26 0 46.5 9.5t35 26
t22.5 38.5t8 47q0 24 -7.5 45.5t-22 38t-35 26t-46.5 9.5q-36 0 -60.5 -16t-40.5 -48h-151v405z" />
    <glyph glyph-name="six.tlf" 
d="M305 -14q-62 0 -111.5 20.5t-84 55t-53 80.5t-18.5 98q0 40 11.5 76.5t31.5 68.5l202 315h182l-140 -210q3 1 10 1q55 -4 99.5 -25.5t75 -55t47 -77.5t16.5 -93q0 -52 -18.5 -98t-53 -80.5t-84 -55t-112.5 -20.5zM305 121q25 0 46 9.5t35.5 25.5t22.5 38t8 46
q0 25 -8 46.5t-22.5 37.5t-35.5 25.5t-46 9.5q-51 0 -80.5 -34.5t-29.5 -84.5q0 -49 29.5 -84t80.5 -35z" />
    <glyph glyph-name="seven.tlf" 
d="M578 700l-298 -700h-173l243 564h-275v136h503z" />
    <glyph glyph-name="eight.tlf" 
d="M300 -15q-62 0 -111 17t-83 46t-51.5 68.5t-17.5 83.5q0 28 8 54.5t23 49t36 38.5t46 23q-45 17 -70.5 59t-25.5 90q0 41 16.5 77.5t48 64t77 43.5t104.5 16q58 0 104 -16t77.5 -43.5t48 -64t16.5 -77.5q0 -48 -25.5 -90t-70.5 -59q25 -8 46 -24.5t36 -38.5t23 -48.5
t8 -54.5q0 -43 -17.5 -81.5t-51.5 -68t-82.5 -47t-111.5 -17.5zM300 419q44 0 68 26t24 61t-24 61t-68 26t-68 -26t-24 -61t24 -61t68 -26zM300 107q25 0 45 8t33.5 21.5t20.5 30.5t7 36t-7 36.5t-20.5 31t-33.5 21.5t-45 8q-52 0 -79.5 -29t-27.5 -68q0 -19 7.5 -36.5
t21 -30.5t33.5 -21t45 -8z" />
    <glyph glyph-name="nine.tlf" 
d="M306 714q63 0 112.5 -20.5t84 -55t52.5 -80.5t18 -98q0 -41 -11.5 -77t-31.5 -68l-202 -315h-182l140 209h-10q-56 4 -100 25.5t-74.5 55t-47 77.5t-16.5 93q0 52 18.5 98t53 80.5t84 55t112.5 20.5zM306 579q-25 0 -45.5 -9.5t-35 -25.5t-22.5 -38t-8 -46
q0 -50 30 -84.5t81 -34.5t81 34.5t30 84.5q0 24 -8 46t-22.5 38t-35 25.5t-45.5 9.5z" />
    <glyph glyph-name="csuperior" horiz-adv-x="392" 
d="M245 475q-3 16 -13.5 25.5t-32.5 9.5q-28 0 -40.5 -18t-12.5 -42q0 -23 13 -40.5t42 -17.5q19 0 29 8t15 22h101q-6 -48 -42.5 -81t-105.5 -33q-38 0 -66.5 11.5t-47.5 31t-29 45t-10 54.5t10 55t29 46t47.5 31.5t66.5 11.5q35 0 61.5 -9.5t45 -26t28.5 -38t12 -45.5
h-100z" />
    <glyph glyph-name="fsuperior" horiz-adv-x="278" 
d="M241 632q-12 4 -26 4t-23 -5.5t-9 -23.5v-21h58v-72h-58v-199h-101v199h-44v72h44v17q0 36 9.5 56.5t24.5 31.5t34 14t38 3q17 0 30.5 -2.5t22.5 -5.5v-68z" />
    <glyph glyph-name="gsuperior" horiz-adv-x="421" 
d="M204 508q-25 0 -40 -17t-15 -41q0 -23 15 -40.5t40 -17.5q24 0 39 17.5t15 40.5q0 24 -15 41t-39 17zM360 326q0 -72 -36.5 -102t-121.5 -30q-81 0 -116 27.5t-36 78.5h101q2 -14 14.5 -26t36.5 -12q26 0 41 13.5t15 42.5v39q-10 -18 -31.5 -30t-49.5 -12q-57 0 -93 36
t-36 99t34 102.5t92 39.5q28 0 50.5 -11.5t33.5 -34.5v40h102v-260z" />
    <glyph glyph-name="ksuperior" horiz-adv-x="386" 
d="M255 450l100 -135h-119l-72 110v-110h-101v385h101v-225l73 111h118z" />
    <glyph glyph-name="psuperior" horiz-adv-x="423" 
d="M219 508q-25 0 -40 -17t-15 -41q0 -23 15 -40.5t40 -17.5q24 0 39 17.5t15 40.5q0 24 -15 41t-39 17zM164 546q8 17 31 31.5t51 14.5q57 0 92.5 -39.5t35.5 -102.5q0 -31 -9.5 -57t-26 -45t-40.5 -29.5t-52 -10.5t-51 15t-31 32v-154h-101v385h101v-40z" />
    <glyph glyph-name="qsuperior" horiz-adv-x="423" 
d="M258 586h102v-385h-102v154q-8 -17 -31 -32t-51 -15q-57 0 -92.5 39.5t-35.5 102.5q0 31 9.5 57.5t26.5 45t40.5 29t51.5 10.5t51 -14.5t31 -31.5v40zM204 508q-24 0 -39.5 -17t-15.5 -41q0 -23 15.5 -40.5t39.5 -17.5t39 17.5t15 40.5q0 24 -15 41t-39 17z" />
    <glyph glyph-name="usuperior" horiz-adv-x="409" 
d="M346 315h-101v40q-11 -22 -34 -34.5t-55 -12.5q-24 0 -43 7.5t-30 20.5q-14 16 -18.5 38t-4.5 52v160h100v-138q0 -26 9 -40.5t32 -14.5q44 0 44 60v133h101v-271z" />
    <glyph glyph-name="vsuperior" horiz-adv-x="385" 
d="M133 586l59 -164l61 164h104l-122 -271h-86l-121 271h105z" />
    <glyph glyph-name="zsuperior" horiz-adv-x="341" 
d="M303 586l-113 -187h107v-84h-259l114 187h-104v84h255z" />
    <glyph glyph-name="plusinferior" horiz-adv-x="410" 
d="M165 -166v84h-82v77h82v84h80v-84h82v-77h-82v-84h-80z" />
    <glyph glyph-name="minusinferior" horiz-adv-x="410" 
d="M83 -82v77h244v-77h-244z" />
    <glyph glyph-name="equalinferior" horiz-adv-x="410" 
d="M83 -28v77h244v-77h-244zM83 -137v77h244v-77h-244z" />
    <glyph glyph-name="colon.case" horiz-adv-x="303" 
d="M50 478q0 21 8 39.5t21.5 32t32 21.5t39.5 8t39.5 -8t32 -21.5t21.5 -32t8 -39.5t-8 -39t-21.5 -31.5t-32 -21.5t-39.5 -8t-39.5 8t-32 21.5t-21.5 31.5t-8 39zM50 158q0 21 8 39t21.5 31.5t32 21.5t39.5 8t40 -8t32.5 -21.5t21.5 -31.5t8 -39t-8 -39t-21.5 -31.5
t-32.5 -21.5t-40 -8t-39.5 8t-32 21.5t-21.5 31.5t-8 39z" />
    <glyph glyph-name="at.case" horiz-adv-x="871" 
d="M470 -127q-111 0 -195 35t-140.5 93t-85.5 133.5t-29 156.5q0 97 35 174.5t94.5 131.5t138 83t165.5 29q90 0 166.5 -25t131.5 -71.5t86 -114t31 -152.5q0 -80 -14.5 -136t-40.5 -91t-62.5 -51t-80.5 -16q-58 0 -95.5 29t-52.5 74q-7 -14 -19.5 -26t-28.5 -21t-34.5 -14
t-37.5 -5q-43 0 -78.5 15.5t-61.5 43t-40.5 64.5t-14.5 79q0 43 15 80t41 64.5t61.5 43t77.5 15.5q19 0 37.5 -5.5t34.5 -14.5t28.5 -21t19.5 -25v56h116v-235q0 -51 12.5 -73t39.5 -22q13 0 24.5 9t20 31t13.5 59.5t5 95.5q0 60 -22 107.5t-61.5 80.5t-95 50.5t-121.5 17.5
t-123.5 -21t-101 -61.5t-68.5 -99t-25 -132.5q0 -60 20.5 -117t62 -101t104.5 -70.5t148 -26.5q39 0 93.5 9t107.5 38l43 -89q-32 -18 -65 -30t-65 -18.5t-61 -9.5t-53 -3zM424 188q22 0 40.5 8t31.5 22.5t20 33t7 39.5q0 43 -27 73.5t-72 30.5q-43 0 -69 -30.5t-26 -73.5
q0 -42 26 -72.5t69 -30.5z" />
    <glyph glyph-name="bar.case" horiz-adv-x="287" 
d="M81 -148v998h127v-998h-127z" />
    <glyph glyph-name="brokenbar.case" horiz-adv-x="287" 
d="M80 416v434h128v-434h-128zM208 292v-440h-128v440h128z" />
    <glyph glyph-name="plus.case" 
d="M241 138v152h-148v122h148v153h131v-153h148v-122h-148v-152h-131z" />
    <glyph glyph-name="minus.case" 
d="M93 290v122h427v-122h-427z" />
    <glyph glyph-name="multiply.case" 
d="M411 482l92 -92l-108 -108l106 -105l-87 -86l-105 104l-108 -107l-92 92l108 107l-105 105l86 87l105 -105z" />
    <glyph glyph-name="divide.case" 
d="M212 504q0 19 7.5 36t20 29.5t29.5 20t37 7.5t37.5 -7.5t30 -20t20 -29.5t7.5 -36q0 -20 -7.5 -37t-20 -29.5t-30 -20t-37.5 -7.5t-37 7.5t-29.5 20t-20 29.5t-7.5 37zM93 257v122h427v-122h-427zM212 138q0 19 7.5 36t20 29.5t29.5 20t37 7.5t37.5 -7.5t30 -20t20 -29.5
t7.5 -36q0 -20 -7.5 -37t-20 -29.5t-30 -20t-37.5 -7.5t-37 7.5t-29.5 20t-20 29.5t-7.5 37z" />
    <glyph glyph-name="equal.case" 
d="M93 380v122h427v-122h-427zM93 198v123h427v-123h-427z" />
    <glyph glyph-name="notequal.case" 
d="M298 198l-44 -103h-116l44 103h-89v123h142l26 59h-168v122h221l44 104h116l-44 -104h90v-122h-143l-26 -59h169v-123h-222z" />
    <glyph glyph-name="approxequal.case" 
d="M78 443q26 33 57 46t57 13q27 0 57.5 -9.5t62.5 -22.5q30 -12 59.5 -24t50.5 -12q35 0 63.5 17.5t48.5 37.5v-120q-25 -33 -56 -45.5t-57 -12.5q-30 0 -56.5 9t-53.5 23q-26 14 -57 24.5t-68 10.5q-31 0 -59 -17.5t-49 -37.5v120zM78 262q26 33 57 46t57 13
q27 0 57.5 -9.5t62.5 -22.5q30 -12 59.5 -24t50.5 -12q35 0 63.5 17.5t48.5 37.5v-120q-25 -33 -56 -46t-57 -13q-30 0 -56.5 9.5t-53.5 23.5q-26 14 -57 24.5t-68 10.5q-31 0 -59 -17.5t-49 -37.5v120z" />
    <glyph glyph-name="logicalnot.case" 
d="M390 380h-297v122h427v-302h-130v180z" />
    <glyph glyph-name="parenleft.case" horiz-adv-x="399" 
d="M362 704q-30 0 -54 -11t-40.5 -30t-25.5 -44.5t-9 -53.5v-453q0 -29 9 -54t25.5 -44t40.5 -30t54 -11v-137q-66 0 -119 22t-90 59.5t-57 88t-20 106.5v453q0 56 20 106.5t57 88t90 59.5t119 22v-137z" />
    <glyph glyph-name="parenright.case" horiz-adv-x="399" 
d="M36 841q66 0 119.5 -22t90.5 -59.5t57 -88t20 -106.5v-453q0 -56 -20 -106.5t-57 -88t-90.5 -59.5t-119.5 -22v137q30 0 54.5 11t41 30t25.5 44t9 54v453q0 28 -9 53.5t-25.5 44.5t-41 30t-54.5 11v137z" />
    <glyph glyph-name="hyphen.case" horiz-adv-x="317" 
d="M285 303h-253v122h253v-122z" />
    <glyph glyph-name="bracketleft.case" horiz-adv-x="385" 
d="M67 -157v999h258v-133h-105v-733h105v-133h-258z" />
    <glyph glyph-name="bracketright.case" horiz-adv-x="385" 
d="M60 -157v133h105v732h-105v133h258v-998h-258z" />
    <glyph glyph-name="braceleft.case" horiz-adv-x="477" 
d="M410 841v-123h-42q-20 0 -33 -7t-21 -18.5t-11 -26t-3 -29.5v-188q0 -32 -11.5 -53.5t-27 -34.5t-32.5 -19t-28 -7q11 -2 28 -7.5t32.5 -18.5t27 -36t11.5 -59v-166q0 -14 3 -28.5t11 -26t21 -19t33 -7.5h42v-124h-101q-34 0 -63.5 10.5t-51.5 30.5t-34.5 50t-12.5 69
v179q0 24 -8.5 40t-21 26t-28 14.5t-29.5 4.5v134q14 0 29.5 4.5t28 14t21 25t8.5 37.5v200q0 39 12.5 68.5t34.5 50t51.5 30.5t63.5 10h101z" />
    <glyph glyph-name="braceright.case" horiz-adv-x="477" 
d="M168 841q34 0 63.5 -10t51.5 -30.5t34.5 -50t12.5 -68.5v-200q0 -22 8 -37.5t21 -25t28.5 -14t29.5 -4.5v-134q-14 0 -29.5 -4.5t-28.5 -14.5t-21 -26t-8 -40v-179q0 -39 -12.5 -69t-34.5 -50t-51.5 -30.5t-63.5 -10.5h-101v124h41q20 0 33.5 7.5t21 19t10.5 26t3 28.5
v166q0 36 11 59t27 36t33 18.5t28 7.5q-11 1 -28 7t-33 19t-27 34.5t-11 53.5v188q0 15 -3 29.5t-10.5 26t-21 18.5t-33.5 7h-41v123h101z" />
    <glyph glyph-name="guillemotleft.case" horiz-adv-x="512" 
d="M250 144l-213 174v79l213 174v-133l-103 -80l103 -80v-134zM470 144l-213 174v79l213 174v-133l-103 -80l103 -80v-134z" />
    <glyph glyph-name="guillemotright.case" horiz-adv-x="512" 
d="M262 278l102 80l-102 80v133l213 -174v-79l-213 -174v134zM42 278l102 80l-102 80v133l213 -174v-79l-213 -174v134z" />
    <glyph glyph-name="endash.case" horiz-adv-x="503" 
d="M40 303v122h423v-122h-423z" />
    <glyph glyph-name="emdash.case" horiz-adv-x="1006" 
d="M45 303v122h916v-122h-916z" />
    <glyph glyph-name="guilsinglleft.case" horiz-adv-x="292" 
d="M250 144l-213 174v79l213 174v-133l-103 -80l103 -80v-134z" />
    <glyph glyph-name="guilsinglright.case" horiz-adv-x="292" 
d="M42 278l102 80l-102 80v133l213 -174v-79l-213 -174v134z" />
    <glyph glyph-name="less.case" 
d="M41 290v120l525 178v-139l-324 -98l324 -100v-138z" />
    <glyph glyph-name="greater.case" 
d="M48 113v138l323 100l-323 98v139l524 -178v-120z" />
    <glyph glyph-name="Iacute.smcp" horiz-adv-x="308" 
d="M56 580l-37 95l233 97l37 -94zM78 560h152v-560h-152v560z" />
    <glyph glyph-name="parenleft.smcp" horiz-adv-x="376" 
d="M322 485q-48 0 -75.5 -32.5t-27.5 -77.5v-318q0 -22 7 -42t20.5 -35t32.5 -23.5t43 -8.5v-126q-58 0 -104 18.5t-78 51t-49 75t-17 90.5v318q0 48 17 91t49 75t78 51t104 19v-126z" />
    <glyph glyph-name="Ibreve.smcp" horiz-adv-x="308" 
d="M74 737q9 -20 28 -34.5t52 -14.5t52 14.5t28 34.5h108q-6 -35 -23 -61.5t-42 -45.5t-56.5 -28.5t-66.5 -9.5t-66 10t-56 28.5t-42 45.5t-24 61h108zM78 560h152v-560h-152v560z" />
    <glyph glyph-name="seven.003" horiz-adv-x="800" 
d="M400 -18q-87 0 -156 30.5t-117 81.5t-73 117.5t-25 138.5t25 138.5t73 117.5t117 81.5t156 30.5t156 -30.5t117 -81.5t73 -117.5t25 -138.5t-25 -138.5t-73 -117.5t-117 -81.5t-156 -30.5zM400 68q64 0 114.5 23.5t86 62.5t54 90t18.5 106t-18.5 106t-54 90t-86 62.5
t-114.5 23.5t-114.5 -23.5t-86 -62.5t-54 -90t-18.5 -106t18.5 -106t54 -90t86 -62.5t114.5 -23.5zM571 536l-164 -385h-114l127 298h-148v87h299z" />
    <glyph glyph-name="seven.004" horiz-adv-x="800" 
d="M400 -18q-87 0 -156 30.5t-117 81.5t-73 117.5t-25 138.5t25 138.5t73 117.5t117 81.5t156 30.5t156 -30.5t117 -81.5t73 -117.5t25 -138.5t-25 -138.5t-73 -117.5t-117 -81.5t-156 -30.5zM272 449h148l-127 -298h114l164 385h-299v-87z" />
    <glyph glyph-name="uni0438.002" horiz-adv-x="607" 
d="M542 482v-482h-153v69q-20 -38 -60.5 -59.5t-97.5 -21.5q-47 0 -81 14.5t-54 40.5q-23 28 -30 64.5t-7 88.5v286h152v-247q0 -52 18.5 -84.5t66.5 -32.5t70.5 33t22.5 89v242h153z" />
    <glyph glyph-name="Dcroat.smcp" horiz-adv-x="639" 
d="M297 560q70 0 124 -23.5t91.5 -62.5t57 -89.5t19.5 -104.5t-19.5 -104.5t-56.5 -89.5t-91.5 -62.5t-124.5 -23.5h-219v229h-73v101h73v230h219zM305 229h-76v-100h58q35 0 62.5 12.5t46.5 33.5t29 48.5t10 56.5t-10 56.5t-29 48.5t-46.5 33.5t-62.5 12.5h-58v-101h76
v-101z" />
    <glyph glyph-name="Scaron.smcp" horiz-adv-x="556" 
d="M125 730l65 75l91 -79l92 79l66 -75l-158 -131zM207 188q0 -42 21.5 -64.5t56.5 -22.5q28 0 45.5 15t17.5 40q0 28 -22 42t-64 30q-39 15 -74 29.5t-61.5 35t-42 49.5t-15.5 72q0 42 18 72t47.5 50t67.5 29.5t79 9.5q57 0 96.5 -15.5t65 -41t37 -58t11.5 -66.5h-151
q0 35 -15.5 54.5t-46.5 19.5q-23 0 -40.5 -12t-17.5 -37q0 -24 20.5 -39.5t57.5 -28.5q36 -13 71.5 -27t64.5 -35t47 -50t18 -72q0 -88 -60 -135t-161 -47q-50 0 -91 13.5t-70 39.5t-45.5 63.5t-16.5 86.5h152z" />
    <glyph glyph-name="Nacute.smcp" horiz-adv-x="652" 
d="M228 588l-37 94l233 98l37 -94zM424 214v346h151v-560h-155l-191 337v-337h-151v560h155z" />
    <glyph glyph-name="Udieresis.001.smcp" horiz-adv-x="586" 
d="M382 592h-84l70 104h83zM265 592h-83l70 104h83zM66 560h151v-365q0 -33 21 -57t55 -24t55.5 24t21.5 57v365h150v-367q0 -45 -15.5 -83t-45 -65.5t-71.5 -43.5t-95 -16t-95 16t-71.5 43.5t-45 65.5t-15.5 83v367z" />
    <glyph glyph-name="Q.smcp" horiz-adv-x="701" 
d="M651 280q0 -80 -38.5 -149t-110.5 -106l48 -63q-5 -3 -24.5 -13t-42 -21.5t-42 -21.5t-24.5 -12l-67 91q-71 0 -127 24.5t-94.5 65.5t-58.5 94t-20 111t20.5 111t59 94t94 65.5t126.5 24.5t127 -24.5t94.5 -65.5t59 -94t20.5 -111zM350 123q34 0 61.5 13t46.5 34.5t29 50
t10 59.5t-10 59t-29 50t-46.5 35t-61.5 13q-35 0 -62 -13t-46 -35t-29 -50t-10 -59t10 -59.5t29 -50t46 -34.5t62 -13z" />
    <glyph glyph-name="Eth.smcp" horiz-adv-x="639" 
d="M297 560q69 0 123 -23.5t91.5 -62.5t57.5 -89.5t20 -104.5t-19.5 -104.5t-57 -89.5t-91.5 -62.5t-124 -23.5h-219v225h-84v110h84v225h219zM308 225h-79v-96h58q35 0 62.5 12.5t46 33.5t28.5 48.5t10 56.5t-10 56.5t-28.5 48.5t-46 33.5t-62.5 12.5h-58v-96h79v-110z" />
    <glyph glyph-name="Tbar.smcp" horiz-adv-x="473" 
d="M386 263h-74v-263h-151v263h-74v100h74v67h-120v130h391v-130h-120v-67h74v-100z" />
    <glyph glyph-name="Y.smcp" horiz-adv-x="584" 
d="M288 0h-169l100 203l-192 357h177l102 -208l92 208h168z" />
    <glyph glyph-name="Ncaron.smcp" horiz-adv-x="652" 
d="M170 714l65 76l91 -79l92 79l65 -76l-157 -132zM424 214v346h151v-560h-155l-191 337v-337h-151v560h155z" />
    <glyph glyph-name="six.004" horiz-adv-x="800" 
d="M400 -18q-87 0 -156 30.5t-117 81.5t-73 117.5t-25 138.5t25 138.5t73 117.5t117 81.5t156 30.5t155.5 -30.5t116.5 -81.5t73 -117.5t25 -138.5t-25 -138.5t-73 -117.5t-116.5 -81.5t-155.5 -30.5zM399 151q37 0 65.5 11t48.5 30.5t30.5 45.5t10.5 55q0 46 -25.5 81.5
t-71.5 48.5q-8 3 -16.5 5.5t-17.5 4.5l74 111h-120l-111 -170q-12 -17 -17.5 -38t-5.5 -43q0 -29 10.5 -55t30.5 -45.5t49 -30.5t66 -11zM399 237q-25 0 -39 16.5t-14 39.5q0 24 14 40.5t39 16.5q24 0 38.5 -16.5t14.5 -40.5q0 -23 -14.5 -39.5t-38.5 -16.5z" />
    <glyph glyph-name="Rcaron.smcp" horiz-adv-x="597" 
d="M134 717l65 76l91 -79l92 79l65 -76l-157 -131zM229 441v-174h77q37 0 58.5 26t21.5 61t-21.5 61t-57.5 26h-78zM78 560h255q47 0 85.5 -16.5t65.5 -45t41.5 -65.5t14.5 -79q0 -59 -27.5 -107t-78.5 -74l112 -173h-177l-90 148h-50v-148h-151v560z" />
    <glyph glyph-name="three.denominator" horiz-adv-x="404" 
d="M154 130q0 -58 47 -58q21 0 31.5 14t10.5 31q0 22 -11 33.5t-37 11.5h-41v79h41q26 0 35.5 10.5t9.5 29.5q0 20 -10 29.5t-27 9.5q-24 0 -32 -14t-8 -37h-107q0 23 7 45.5t24 40t45 28.5t71 11q28 0 54 -6t45.5 -19t31.5 -34t12 -50q0 -32 -18.5 -55.5t-41.5 -30.5
q26 -8 45 -32.5t19 -60.5q0 -29 -12 -50.5t-32.5 -36t-46.5 -21.5t-54 -7q-42 0 -72 10.5t-49 29.5t-28 44.5t-9 54.5h107z" />
    <glyph glyph-name="Obreve.smcp" horiz-adv-x="701" 
d="M270 736q10 -20 28 -34.5t52 -14.5t52.5 14.5t27.5 34.5h108q-6 -35 -23 -61.5t-42 -45.5t-56.5 -28.5t-66.5 -9.5t-66.5 10t-56 28.5t-41.5 45.5t-23 61h107zM350 -15q-71 0 -126.5 24.5t-94 65.5t-59 94t-20.5 111t20.5 111t59 94t94 65.5t126.5 24.5t127 -24.5
t94.5 -65.5t59 -94t20.5 -111t-20.5 -111t-59 -94t-94.5 -65.5t-127 -24.5zM350 123q34 0 61.5 13t46.5 34.5t29 50t10 59.5t-10 59t-29 50t-46.5 35t-61.5 13q-35 0 -62 -13t-46 -35t-29 -50t-10 -59t10 -59.5t29 -50t46 -34.5t62 -13z" />
    <glyph glyph-name="Lacute.smcp" horiz-adv-x="427" 
d="M55 588l-37 94l233 98l37 -94zM380 130v-130h-302v560h150v-430h152z" />
    <glyph glyph-name="C.smcp" horiz-adv-x="690" 
d="M642 212q-8 -47 -30.5 -88t-59 -72t-86.5 -49t-112 -18q-72 0 -128.5 24t-95.5 64.5t-59.5 94.5t-20.5 113q0 57 20.5 110.5t59 94t93.5 65t125 24.5q67 0 118.5 -19t88.5 -51.5t58.5 -76.5t27.5 -93h-158q-8 44 -40.5 73.5t-88.5 29.5q-37 0 -65 -13t-47 -35t-28.5 -50
t-9.5 -59q0 -33 10.5 -62t30 -50.5t48.5 -34t65 -12.5q48 0 81 26t43 64h160z" />
    <glyph glyph-name="ampersand.smcp" horiz-adv-x="576" 
d="M306 296h225v-111h-34q-1 -43 -14.5 -79t-41 -62.5t-70 -41.5t-100.5 -15q-39 0 -77.5 10.5t-69 31.5t-49 53t-18.5 75q0 51 27.5 84t65.5 49q-35 12 -61 44t-26 81q0 42 17 71.5t45.5 49t65.5 28.5t77 9q60 0 100.5 -15.5t65.5 -41t35.5 -58t10.5 -65.5h-152
q0 33 -12.5 53.5t-48.5 20.5q-24 0 -39.5 -14t-15.5 -43q0 -27 16 -44.5t55 -17.5v-111q-41 0 -58 -18.5t-17 -50.5q0 -25 18 -45t52 -20q29 0 49.5 21.5t22.5 60.5h-44v111z" />
    <glyph glyph-name="J.smcp" horiz-adv-x="542" 
d="M471 199q0 -110 -57.5 -161.5t-159.5 -51.5q-55 0 -96 16.5t-68 45t-40 67.5t-13 84h151q0 -36 16.5 -60.5t49.5 -24.5q32 0 49.5 21.5t17.5 63.5v361h150v-361z" />
    <glyph glyph-name="nine.denominator" horiz-adv-x="402" 
d="M104 0l74 110q-63 7 -97.5 46t-34.5 94q0 29 10.5 55t30.5 45.5t49 31t66 11.5t66 -11.5t49 -31t30.5 -45.5t10.5 -55q0 -46 -24 -80l-111 -170h-119zM202 307q-24 0 -38.5 -16.5t-14.5 -40.5q0 -23 14.5 -39.5t38.5 -16.5t38.5 16.5t14.5 39.5q0 24 -14.5 40.5
t-38.5 16.5z" />
    <glyph glyph-name="Idotaccent.smcp" horiz-adv-x="308" 
d="M72 687q0 34 23 58t58 24t59 -24t24 -58q0 -33 -24 -57t-59 -24t-58 24t-23 57zM78 560h152v-560h-152v560z" />
    <glyph glyph-name="Hcircumflex.smcp" horiz-adv-x="629" 
d="M315 793l164 -131l-69 -76l-95 77l-95 -76l-70 75zM400 214h-171v-214h-151v560h151v-218h171v218h152v-560h-152v214z" />
    <glyph glyph-name="three.numerator" horiz-adv-x="404" 
d="M154 445q0 -58 47 -58q21 0 31.5 14t10.5 31q0 22 -11 33.5t-37 11.5h-41v79h41q26 0 35.5 10.5t9.5 29.5q0 20 -10 29.5t-27 9.5q-24 0 -32 -14t-8 -37h-107q0 23 7 45.5t24 40t45 28.5t71 11q28 0 54 -6t45.5 -19t31.5 -34t12 -50q0 -32 -18.5 -55.5t-41.5 -30.5
q26 -8 45 -32.5t19 -60.5q0 -29 -12 -50.5t-32.5 -36t-46.5 -21.5t-54 -7q-42 0 -72 10.5t-49 29.5t-28 44.5t-9 54.5h107z" />
    <glyph glyph-name="uni0437.002" horiz-adv-x="508" 
d="M159 -25q2 -48 28 -72t61 -24q32 0 54.5 26t22.5 83q0 23 -5 44.5t-16.5 38t-31 26.5t-48.5 10h-39v103h40q42 0 65 25.5t23 72.5q0 37 -14 59.5t-45 22.5q-35 0 -49.5 -20t-14.5 -52h-150q0 34 12.5 65t39 54.5t68 37.5t100.5 14q44 0 81 -11t64 -33.5t42 -55.5t15 -76
q0 -37 -9 -64t-24.5 -45t-36 -28.5t-43.5 -13.5q27 -2 50.5 -16t40.5 -36.5t27 -52.5t10 -65q0 -56 -18.5 -98t-50 -69.5t-74 -41t-89.5 -13.5q-122 0 -179.5 55t-58.5 150h152z" />
    <glyph glyph-name="Racute.smcp" horiz-adv-x="597" 
d="M200 588l-37 94l234 98l37 -94zM229 441v-174h77q37 0 58.5 26t21.5 61t-21.5 61t-57.5 26h-78zM78 560h255q47 0 85.5 -16.5t65.5 -45t41.5 -65.5t14.5 -79q0 -59 -27.5 -107t-78.5 -74l112 -173h-177l-90 148h-50v-148h-151v560z" />
    <glyph glyph-name="Scommaaccent.smcp" horiz-adv-x="556" 
d="M207 188q0 -42 21.5 -64.5t56.5 -22.5q28 0 45.5 15t17.5 40q0 28 -22 42t-64 30q-39 15 -74 29.5t-61.5 35t-42 49.5t-15.5 72q0 42 18 72t47 50t67 29.5t79 9.5q57 0 97 -15.5t65.5 -41t37 -58t11.5 -66.5h-151q0 35 -15.5 54.5t-46.5 19.5q-23 0 -40.5 -12t-17.5 -37
q0 -24 20.5 -39.5t57.5 -28.5q36 -13 71.5 -27t64.5 -35t47 -50t18 -72q0 -88 -60 -135t-161 -47q-50 0 -91 13.5t-70 39.5t-45.5 63.5t-16.5 86.5h152zM211 -89q0 28 19 47.5t46 19.5q34 0 55 -24t21 -62q0 -76 -36.5 -106.5t-101.5 -31.5v42q42 0 59.5 17t20.5 37
q-1 -1 -6.5 -3t-11.5 -2q-30 0 -47.5 19.5t-17.5 46.5z" />
    <glyph glyph-name="Icircumflex.smcp" horiz-adv-x="308" 
d="M154 793l164 -132l-68 -75l-96 76l-95 -76l-69 75zM78 560h152v-560h-152v560z" />
    <glyph glyph-name="four.numerator" horiz-adv-x="416" 
d="M222 415h-163v285h107v-197h56v100h106v-100h43v-88h-43v-100h-106v100z" />
    <glyph glyph-name="A.smcp" horiz-adv-x="623" 
d="M246 179h126l-62 216zM593 0h-167l-20 66h-193l-20 -66h-163l204 560h151z" />
    <glyph glyph-name="E.smcp" horiz-adv-x="503" 
d="M229 444v-110h202v-112h-202v-106h202v-116h-353v560h353v-116h-202z" />
    <glyph glyph-name="V.smcp" horiz-adv-x="604" 
d="M376 0h-152l-203 560h163l116 -388l116 388h168z" />
    <glyph glyph-name="AEacute.smcp" horiz-adv-x="805" 
d="M369 588l-37 94l233 98l37 -94zM378 179v248l-110 -248h110zM530 444v-110h201v-112h-201v-106h201v-116h-353v66h-158l-28 -66h-165l266 560h438v-116h-201z" />
    <glyph glyph-name="Adieresis.001.smcp" horiz-adv-x="623" 
d="M404 592h-84l70 104h83zM288 592h-84l70 104h83zM246 179h126l-62 216zM593 0h-167l-20 66h-193l-20 -66h-163l204 560h151z" />
    <glyph glyph-name="Udieresis.smcp" horiz-adv-x="586" 
d="M109 680q0 34 23.5 57.5t58.5 23.5t59 -23.5t24 -57.5q0 -33 -24 -57t-59 -24t-58.5 24t-23.5 57zM307 680q0 34 23.5 57.5t58.5 23.5t59 -23.5t24 -57.5q0 -33 -24 -57t-59 -24t-58.5 24t-23.5 57zM66 560h151v-365q0 -33 21 -57t55 -24t55.5 24t21.5 57v365h150v-367
q0 -45 -15.5 -83t-45 -65.5t-71.5 -43.5t-95 -16t-95 16t-71.5 43.5t-45 65.5t-15.5 83v367z" />
    <glyph glyph-name="Lcommaaccent.smcp" horiz-adv-x="427" 
d="M78 560h151v-430h151v-130h-302v560zM143 -80q0 28 19 47.5t47 19.5q33 0 54 -23.5t21 -61.5q0 -77 -37 -107.5t-101 -30.5v42q43 0 60.5 17t19.5 37q0 -1 -6 -3.5t-11 -2.5q-30 0 -48 19.5t-18 46.5z" />
    <glyph glyph-name="eight.004" horiz-adv-x="800" 
d="M400 -18q-87 0 -156 30.5t-117 81.5t-73 117.5t-25 138.5t25 138.5t73 117.5t117 81.5t156 30.5t155.5 -30.5t116.5 -81.5t73 -117.5t25 -138.5t-25 -138.5t-73 -117.5t-116.5 -81.5t-155.5 -30.5zM400 149q37 0 65.5 9.5t48 25.5t30 37.5t10.5 45.5q0 33 -20 58t-46 33
q24 8 40 31t16 52q0 46 -37.5 78.5t-106.5 32.5t-106.5 -32.5t-37.5 -78.5q0 -29 16.5 -52t39.5 -31q-26 -7 -46 -32.5t-20 -58.5q0 -49 40 -83.5t114 -34.5zM400 394q-21 0 -32.5 12.5t-11.5 29.5t11.5 29.5t32.5 12.5t32.5 -12.5t11.5 -29.5t-11.5 -29.5t-32.5 -12.5z
M400 223q-24 0 -37.5 14t-13.5 33q0 20 13 33.5t38 13.5t38 -14t13 -33q0 -18 -13.5 -32.5t-37.5 -14.5z" />
    <glyph glyph-name="eight.003" horiz-adv-x="800" 
d="M400 -18q-87 0 -156 30.5t-117 81.5t-73 117.5t-25 138.5t25 138.5t73 117.5t117 81.5t156 30.5t155.5 -30.5t116.5 -81.5t73 -117.5t25 -138.5t-25 -138.5t-73 -117.5t-116.5 -81.5t-155.5 -30.5zM400 68q64 0 114.5 23.5t85.5 62.5t53.5 90t18.5 106t-18.5 106
t-53.5 90t-85.5 62.5t-114.5 23.5t-114.5 -23.5t-86 -62.5t-54 -90t-18.5 -106t18.5 -106t54 -90t86 -62.5t114.5 -23.5zM400 149q-74 0 -114 34.5t-40 83.5q0 33 20 58.5t46 32.5q-23 8 -39.5 31t-16.5 52q0 46 37.5 78.5t106.5 32.5t106.5 -32.5t37.5 -78.5q0 -29 -16 -52
t-40 -31q26 -8 46 -33t20 -58q0 -24 -10.5 -45.5t-30 -37.5t-48 -25.5t-65.5 -9.5zM400 394q21 0 32.5 12.5t11.5 29.5t-11.5 29.5t-32.5 12.5t-32.5 -12.5t-11.5 -29.5t11.5 -29.5t32.5 -12.5zM400 223q24 0 37.5 14.5t13.5 32.5q0 19 -13 33t-38 14t-38 -13.5t-13 -33.5
q0 -19 13.5 -33t37.5 -14z" />
    <glyph glyph-name="six.numerator" horiz-adv-x="402" 
d="M200 307q-37 0 -66 11.5t-48.5 31t-30 45.5t-10.5 55q0 46 22 80l112 170h120l-74 -110q9 -2 17 -5l16 -6q47 -13 72.5 -48t25.5 -81q0 -29 -10.5 -55t-30.5 -45.5t-49 -31t-66 -11.5zM200 393q25 0 39 16.5t14 40.5q0 23 -14 39.5t-39 16.5q-24 0 -38.5 -16.5
t-14.5 -39.5q0 -24 14.5 -40.5t38.5 -16.5z" />
    <glyph glyph-name="Cacute.smcp" horiz-adv-x="690" 
d="M246 587l-37 94l234 99l37 -94zM642 212q-8 -47 -30.5 -88t-59 -72t-86.5 -49t-112 -18q-72 0 -128.5 24t-95.5 64.5t-59.5 94.5t-20.5 113q0 57 20.5 110.5t59 94t93.5 65t125 24.5q67 0 118.5 -19t88.5 -51.5t58.5 -76.5t27.5 -93h-158q-8 44 -40.5 73.5t-88.5 29.5
q-37 0 -65 -13t-47 -35t-28.5 -50t-9.5 -59q0 -33 10.5 -62t30 -50.5t48.5 -34t65 -12.5q48 0 81 26t43 64h160z" />
    <glyph glyph-name="minus.numerator" horiz-adv-x="410" 
d="M83 433v77h244v-77h-244z" />
    <glyph glyph-name="nine.plf.smcp" horiz-adv-x="557" 
d="M143 0l109 163q-45 4 -81 21t-61 44t-38.5 62t-13.5 76q0 42 15 79.5t43.5 65t69.5 44t94 16.5q52 0 93 -16.5t69.5 -44t43.5 -65t15 -79.5q0 -32 -9 -62t-25 -55l-162 -249h-162zM280 453q-38 0 -60 -25.5t-22 -61.5q0 -37 22 -62.5t60 -25.5q37 0 59.5 25.5t22.5 62.5
q0 36 -22.5 61.5t-59.5 25.5z" />
    <glyph glyph-name="one.003" horiz-adv-x="800" 
d="M400 -18q-87 0 -156 30.5t-117 81.5t-73 117.5t-25 138.5t25 138.5t73 117.5t117 81.5t156 30.5t155.5 -30.5t116.5 -81.5t73 -117.5t25 -138.5t-25 -138.5t-73 -117.5t-116.5 -81.5t-155.5 -30.5zM400 68q64 0 114.5 23.5t85.5 62.5t53.5 90t18.5 106t-18.5 106
t-53.5 90t-85.5 62.5t-114.5 23.5t-114.5 -23.5t-86 -62.5t-54 -90t-18.5 -106t18.5 -106t54 -90t86 -62.5t114.5 -23.5zM274 472q29 0 48 4.5t29.5 13.5t14.5 22t4 30h92v-385h-109v243h-79v72z" />
    <glyph glyph-name="one.004" horiz-adv-x="800" 
d="M400 -18q-87 0 -156 30.5t-117 81.5t-73 117.5t-25 138.5t25 138.5t73 117.5t117 81.5t156 30.5t155.5 -30.5t116.5 -81.5t73 -117.5t25 -138.5t-25 -138.5t-73 -117.5t-116.5 -81.5t-155.5 -30.5zM353 400v-243h109v385h-92q0 -17 -4 -30t-14.5 -22t-29.5 -13.5
t-48 -4.5v-72h79z" />
    <glyph glyph-name="Uacute.smcp" horiz-adv-x="586" 
d="M185 588l-37 94l234 98l37 -94zM66 560h151v-365q0 -33 21 -57t55 -24t55.5 24t21.5 57v365h150v-367q0 -45 -15.5 -83t-45 -65.5t-71.5 -43.5t-95 -16t-95 16t-71.5 43.5t-45 65.5t-15.5 83v367z" />
    <glyph glyph-name="Imacron.smcp" horiz-adv-x="308" 
d="M304 631h-300v100h300v-100zM77 560h153v-560h-153v560z" />
    <glyph glyph-name="equal.denominator" horiz-adv-x="410" 
d="M83 172v77h244v-77h-244zM83 63v77h244v-77h-244z" />
    <glyph glyph-name="F.smcp" horiz-adv-x="499" 
d="M229 435v-135h202v-121h-202v-179h-151v560h353v-125h-202z" />
    <glyph glyph-name="one.numerator" horiz-adv-x="298" 
d="M46 630q29 0 47.5 4.5t29 13.5t14.5 22t4 30h92v-385h-108v243h-79v72z" />
    <glyph glyph-name="parenleft.denominator" horiz-adv-x="283" 
d="M234 330q-34 0 -52.5 -22t-18.5 -53v-213q0 -30 18.5 -52t52.5 -22v-89q-41 0 -73 13t-54.5 35t-34.5 52t-12 63v213q0 33 12 63t34.5 52t54.5 35t73 13v-88z" />
    <glyph glyph-name="exclamdown.smcp" horiz-adv-x="336" 
d="M78 476q0 18 7 34.5t19.5 29t29 19.5t35.5 7t35.5 -7t29 -19.5t19.5 -29t7 -34.5t-7 -34t-19.5 -28.5t-29 -19.5t-35.5 -7t-35.5 7t-29 19.5t-19.5 28.5t-7 34zM93 350h153v-356h-153v356z" />
    <glyph glyph-name="brokenbar.smcp" horiz-adv-x="503" 
d="M78 318v293h143v-293h-143zM221 204v-301h-143v301h143z" />
    <glyph glyph-name="D.smcp" horiz-adv-x="639" 
d="M297 560q69 0 123.5 -23.5t92 -62.5t57 -89.5t19.5 -104.5t-19.5 -104.5t-56.5 -89.5t-91.5 -62.5t-124.5 -23.5h-219v560h219zM229 431v-302h58q35 0 62.5 12.5t46 33.5t28.5 48.5t10 56.5t-10 56.5t-28.5 48.5t-46 33.5t-62.5 12.5h-58z" />
    <glyph glyph-name="Gdotaccent.smcp" horiz-adv-x="720" 
d="M265 689q0 34 23 58t58 24t59 -24t24 -58q0 -32 -24 -56t-59 -24q-17 0 -32 6.5t-26 17.5t-17 25.5t-6 30.5zM377 304h305v-104h-55q-8 -48 -30 -87.5t-57.5 -68t-84 -44t-109.5 -15.5q-71 0 -126.5 23.5t-93 64t-57 94t-19.5 113.5q0 57 20 110.5t58 94.5t93 65.5
t125 24.5q58 0 106.5 -16.5t83.5 -44t55.5 -64.5t24.5 -79h-165q-5 28 -32 51t-72 23q-35 0 -62 -14t-45 -37.5t-27 -53.5t-9 -62q0 -35 9.5 -65.5t28 -53t47 -36t67.5 -13.5q52 0 81 26.5t36 63.5h-96v104z" />
    <glyph glyph-name="three.plf.smcp" horiz-adv-x="559" 
d="M203 189q0 -43 20 -66.5t55 -23.5q33 0 50 21.5t17 48.5q0 32 -17 51t-59 19h-55v108h55q42 0 56 17.5t14 46.5q0 30 -16 44t-42 14q-38 0 -51 -20.5t-13 -55.5h-144q0 34 10.5 66.5t34.5 57.5t63.5 40.5t97.5 15.5q40 0 77 -9t65 -28.5t44.5 -49.5t16.5 -71
q0 -47 -26 -80.5t-59 -44.5q38 -13 65 -47.5t27 -88.5q0 -41 -17 -72t-46 -52t-66.5 -32t-77.5 -11q-58 0 -100 15t-69.5 42t-40.5 64t-13 81h144z" />
    <glyph glyph-name="Itilde.smcp" horiz-adv-x="308" 
d="M-9 698q40 22 60 26t32 4q9 0 26.5 -3.5t36 -7.5t35.5 -7.5t26 -3.5q7 0 13.5 1t14 3.5t18 6.5t25.5 11l39 -81q-35 -26 -60.5 -31t-36.5 -5q-10 0 -27.5 3t-36 7t-35.5 7t-26 3q-18 0 -32 -5t-30 -11zM78 560h152v-560h-152v560z" />
    <glyph glyph-name="Aringacute.smcp" horiz-adv-x="623" 
d="M225 657l-24 59l182 81l23 -59zM309 630q-10 0 -16.5 -6.5t-6.5 -17.5q0 -8 6.5 -15t16.5 -7t16.5 7t6.5 16q0 10 -6 16.5t-17 6.5zM310 395l-64 -216h126zM426 0l-20 66h-193l-20 -66h-163l204 559h17q-2 4 -8.5 19t-6.5 29q0 31 21.5 52t51.5 21q31 0 52 -21.5
t21 -51.5q0 -14 -5.5 -28.5t-7.5 -18.5h16l208 -560h-167z" />
    <glyph glyph-name="OE.smcp" horiz-adv-x="922" 
d="M350 122q34 0 61.5 13t46.5 34.5t29 50t10 59.5t-10 59.5t-29 50.5t-46.5 35t-61.5 13q-35 0 -62 -13t-46 -35t-29 -50.5t-10 -59.5t10 -59.5t29 -50t46 -34.5t62 -13zM649 444v-110h201v-112h-201v-106h201v-116h-352v43q-23 -24 -56.5 -41t-91.5 -17q-71 0 -126.5 24.5
t-94 65t-59 93.5t-20.5 111t20.5 111t59 94t94 65.5t126.5 24.5q49 0 89.5 -16.5t58.5 -35.5v38h352v-116h-201z" />
    <glyph glyph-name="Gcircumflex.smcp" horiz-adv-x="720" 
d="M346 794l165 -131l-69 -76l-96 77l-95 -76l-69 75zM377 304h305v-104h-55q-8 -48 -30 -87.5t-57.5 -68t-84 -44t-109.5 -15.5q-71 0 -126.5 23.5t-93 64t-57 94t-19.5 113.5q0 57 20 110.5t58 94.5t93 65.5t125 24.5q58 0 106.5 -16.5t83.5 -44t55.5 -64.5t24.5 -79h-165
q-5 28 -32 51t-72 23q-35 0 -62 -14t-45 -37.5t-27 -53.5t-9 -62q0 -35 9.5 -65.5t28 -53t47 -36t67.5 -13.5q52 0 81 26.5t36 63.5h-96v104z" />
    <glyph glyph-name="equal.numerator" horiz-adv-x="410" 
d="M83 487v77h244v-77h-244zM83 378v77h244v-77h-244z" />
    <glyph glyph-name="Egrave.smcp" horiz-adv-x="503" 
d="M126 679l36 94l234 -98l-37 -94zM229 444v-110h202v-112h-202v-106h202v-116h-353v560h353v-116h-202z" />
    <glyph glyph-name="three.003" horiz-adv-x="800" 
d="M400 -18q-87 0 -156 30.5t-117 81.5t-73 117.5t-25 138.5t25 138.5t73 117.5t117 81.5t156 30.5t155.5 -30.5t116.5 -81.5t73 -117.5t25 -138.5t-25 -138.5t-73 -117.5t-116.5 -81.5t-155.5 -30.5zM400 68q64 0 114.5 23.5t85.5 62.5t53.5 90t18.5 106t-18.5 106
t-53.5 90t-85.5 62.5t-114.5 23.5t-114.5 -23.5t-86 -62.5t-54 -90t-18.5 -106t18.5 -106t54 -90t86 -62.5t114.5 -23.5zM352 288q0 -58 47 -58q21 0 31 14t10 31q0 22 -10.5 33.5t-36.5 11.5h-41v79h40q27 0 36.5 10.5t9.5 29.5q0 20 -10 29.5t-27 9.5q-24 0 -32 -14
t-8 -37h-107q0 23 7 45.5t23.5 40t45 28.5t70.5 11q28 0 54 -6t45.5 -19t31.5 -34t12 -50q0 -32 -18.5 -55.5t-41.5 -30.5q26 -8 45 -32.5t19 -60.5q0 -29 -12 -50.5t-32 -36t-46 -21.5t-54 -7q-42 0 -72 10.5t-49 29.5t-28 44.5t-9 54.5h107z" />
    <glyph glyph-name="three.004" horiz-adv-x="800" 
d="M400 -18q-87 0 -156 30.5t-117 81.5t-73 117.5t-25 138.5t25 138.5t73 117.5t117 81.5t156 30.5t155.5 -30.5t116.5 -81.5t73 -117.5t25 -138.5t-25 -138.5t-73 -117.5t-116.5 -81.5t-155.5 -30.5zM245 288q0 -29 9 -54.5t28 -44.5t49 -29.5t72 -10.5q28 0 54 7t46 21.5
t32 36t12 50.5q0 36 -19 60.5t-45 32.5q23 7 41.5 30.5t18.5 55.5q0 29 -12 50t-31.5 34t-45.5 19t-54 6q-42 0 -70.5 -11t-45 -28.5t-23.5 -40t-7 -45.5h107q0 23 8 37t32 14q17 0 27 -9.5t10 -29.5q0 -19 -9.5 -29.5t-36.5 -10.5h-40v-79h41q26 0 36.5 -11.5t10.5 -33.5
q0 -17 -10 -31t-31 -14q-47 0 -47 58h-107z" />
    <glyph glyph-name="Edotaccent.smcp" horiz-adv-x="503" 
d="M169 686q0 34 23.5 58t57.5 24q36 0 59.5 -24t23.5 -58q0 -32 -23.5 -56.5t-59.5 -24.5q-17 0 -31.5 6.5t-25.5 18t-17.5 26t-6.5 30.5zM229 444v-110h202v-112h-202v-106h202v-116h-353v560h353v-116h-202z" />
    <glyph glyph-name="R.smcp" horiz-adv-x="597" 
d="M306 267q37 0 58.5 26t21.5 61t-21.5 61t-57.5 26h-78v-174h77zM78 560h255q47 0 85.5 -16.5t65.5 -45t41.5 -65.5t14.5 -79q0 -59 -27.5 -107t-78.5 -74l112 -173h-177l-90 139h-50v-139h-151v560z" />
    <glyph glyph-name="P.smcp" horiz-adv-x="579" 
d="M78 560h254q48 0 86.5 -16.5t65.5 -45t41.5 -65.5t14.5 -79t-14.5 -79t-41.5 -65.5t-65.5 -45t-86.5 -16.5h-103v-148h-151v560zM306 267q37 0 58.5 26t21.5 61t-21.5 61t-57.5 26h-78v-174h77z" />
    <glyph glyph-name="six.003" horiz-adv-x="800" 
d="M400 -18q-87 0 -156 30.5t-117 81.5t-73 117.5t-25 138.5t25 138.5t73 117.5t117 81.5t156 30.5t155.5 -30.5t116.5 -81.5t73 -117.5t25 -138.5t-25 -138.5t-73 -117.5t-116.5 -81.5t-155.5 -30.5zM400 68q64 0 114.5 23.5t85.5 62.5t53.5 90t18.5 106t-18.5 106
t-53.5 90t-85.5 62.5t-114.5 23.5t-114.5 -23.5t-86 -62.5t-54 -90t-18.5 -106t18.5 -106t54 -90t86 -62.5t114.5 -23.5zM399 151q-37 0 -66 11t-49 30.5t-30.5 45.5t-10.5 55q0 22 5.5 43t17.5 38l111 170h120l-74 -111q9 -2 17.5 -4.5t16.5 -5.5q46 -13 71.5 -48.5
t25.5 -81.5q0 -29 -10.5 -55t-30.5 -45.5t-48.5 -30.5t-65.5 -11zM399 237q24 0 38.5 16.5t14.5 39.5q0 24 -14.5 40.5t-38.5 16.5q-25 0 -39 -16.5t-14 -40.5q0 -23 14 -39.5t39 -16.5z" />
    <glyph glyph-name="Uring.smcp" horiz-adv-x="586" 
d="M293 803q24 0 44.5 -9t35.5 -24.5t24 -36t9 -43.5t-9 -43.5t-24 -35.5t-35.5 -24t-44.5 -9t-44.5 9t-35.5 24t-24 35.5t-9 43.5q0 24 9 44.5t24 35.5t35.5 24t44.5 9zM293 728q-16 0 -26 -11.5t-10 -26.5q0 -14 11 -24t25 -10t25 10.5t11 24.5t-10 25.5t-26 11.5zM66 560
h151v-365q0 -33 21 -57t55 -24t55.5 24t21.5 57v365h150v-367q0 -45 -15.5 -83t-45 -65.5t-71.5 -43.5t-95 -16t-95 16t-71.5 43.5t-45 65.5t-15.5 83v367z" />
    <glyph glyph-name="M.smcp" horiz-adv-x="786" 
d="M708 0h-147v347l-109 -347h-112l-116 347v-347h-146v560h186l131 -374l131 374h182v-560z" />
    <glyph glyph-name="Atilde.smcp" horiz-adv-x="623" 
d="M151 698q39 22 59 26t32 4q9 0 26.5 -3.5t36.5 -7.5t36 -7.5t26 -3.5q7 0 13 1t13.5 3.5t18 6.5t25.5 11l39 -81q-35 -26 -60.5 -31t-36.5 -5q-10 0 -27.5 3t-36 7t-35.5 7t-25 3q-19 0 -33 -5t-30 -11zM246 179h126l-62 216zM593 0h-167l-20 66h-193l-20 -66h-163
l204 560h151z" />
    <glyph glyph-name="Wcircumflex.smcp" horiz-adv-x="905" 
d="M452 790l165 -132l-69 -75l-96 77l-95 -76l-69 74zM453 324l-101 -324h-129l-200 560h160l106 -348l104 348h119l105 -348l105 348h160l-200 -560h-128z" />
    <glyph glyph-name="questiondown.smcp" horiz-adv-x="501" 
d="M349 484q0 -38 -26 -64.5t-65 -26.5q-20 0 -36.5 7t-29.5 19.5t-20 29t-7 35.5q0 18 7 34.5t20 29t29.5 20t36.5 7.5q39 0 65 -27t26 -64zM333 373q0 -51 -15.5 -82.5t-58.5 -59.5q-23 -15 -43 -34t-20 -50q0 -26 16 -39t41 -13t42 17t17 58h149q0 -36 -12 -68.5
t-37.5 -57.5t-64.5 -40t-94 -15q-40 0 -76.5 9.5t-65 29.5t-45.5 49.5t-17 70.5q0 32 10 55t23.5 39.5t28.5 28t25 19.5q12 10 20.5 18t14.5 17.5t8.5 20.5t2.5 27h151z" />
    <glyph glyph-name="Dcaron.smcp" horiz-adv-x="639" 
d="M155 716l65 75l91 -79l92 79l66 -75l-158 -132zM297 560q69 0 123.5 -23.5t92 -62.5t57 -89.5t19.5 -104.5t-19.5 -104.5t-56.5 -89.5t-91.5 -62.5t-124.5 -23.5h-219v560h219zM229 431v-302h58q35 0 62.5 12.5t46 33.5t28.5 48.5t10 56.5t-10 56.5t-28.5 48.5t-46 33.5
t-62.5 12.5h-58z" />
    <glyph glyph-name="two.denominator" horiz-adv-x="397" 
d="M54 0q0 48 7.5 80.5t20.5 55t31.5 38t41.5 29.5q41 23 62.5 39t21.5 41q0 20 -10.5 28.5t-25.5 8.5q-18 0 -29 -11.5t-11 -39.5h-107q0 24 8.5 46.5t26 40t45.5 28t67 10.5q27 0 52.5 -6.5t45 -20.5t31.5 -36.5t12 -53.5q0 -23 -8.5 -41.5t-22.5 -34t-31.5 -28
t-35.5 -22.5q-19 -11 -32 -19.5t-21.5 -16t-12 -15t-3.5 -17.5h164v-83h-287v0z" />
    <glyph glyph-name="Kcommaaccent.smcp" horiz-adv-x="604" 
d="M395 0l-166 232v-232h-151v560h151v-233l166 233h178l-212 -280l212 -280h-178zM235 -80q0 28 19 47.5t46 19.5q34 0 54.5 -23.5t20.5 -61.5q0 -77 -36.5 -107.5t-101.5 -30.5v42q43 0 60.5 17t20.5 37q-1 -1 -7 -3.5t-11 -2.5q-30 0 -47.5 19.5t-17.5 46.5z" />
    <glyph glyph-name="H.smcp" horiz-adv-x="629" 
d="M400 214h-171v-214h-151v560h151v-218h171v218h152v-560h-152v214z" />
    <glyph glyph-name="uni021A.smcp" horiz-adv-x="473" 
d="M161 430h-120v130h391v-130h-120v-430h-151v430zM167 -80q0 28 19.5 47.5t46.5 19.5q34 0 54.5 -23.5t20.5 -61.5q0 -77 -36.5 -107.5t-101.5 -30.5v42q42 0 60 17t21 37q-1 -1 -7 -3.5t-11 -2.5q-31 0 -48.5 19.5t-17.5 46.5z" />
    <glyph glyph-name="Otilde.smcp" horiz-adv-x="701" 
d="M188 698q19 11 33.5 17t25 9t18.5 3.5t14 0.5q9 0 26.5 -3.5t36.5 -7.5t36 -7.5t25 -3.5q7 0 13.5 1t14 3.5t18 6.5t25.5 11l38 -81q-35 -26 -60 -31t-36 -5q-10 0 -27.5 3t-36 7t-35.5 7t-26 3q-18 0 -32 -5t-30 -11zM350 -15q-71 0 -126.5 24.5t-94 65.5t-59 94
t-20.5 111t20.5 111t59 94t94 65.5t126.5 24.5t127 -24.5t94.5 -65.5t59 -94t20.5 -111t-20.5 -111t-59 -94t-94.5 -65.5t-127 -24.5zM350 123q34 0 61.5 13t46.5 34.5t29 50t10 59.5t-10 59t-29 50t-46.5 35t-61.5 13q-35 0 -62 -13t-46 -35t-29 -50t-10 -59t10 -59.5
t29 -50t46 -34.5t62 -13z" />
    <glyph glyph-name="braceleft.smcp" horiz-adv-x="442" 
d="M369 611v-118h-32q-17 0 -29 -6t-19 -15.5t-10 -22t-3 -24.5v-120q0 -26 -9 -42.5t-22 -27t-26.5 -15.5t-22.5 -6q9 -1 22.5 -5.5t26.5 -15t22 -28.5t9 -46v-107q0 -12 3 -24t10 -22t19 -16t29 -6h32v-117h-95q-64 0 -103 35t-39 101v122q0 36 -21 50t-46 14v130
q12 0 24 3t21.5 10t15.5 19t6 29v133q0 66 39 102t103 36h95z" />
    <glyph glyph-name="G.smcp" horiz-adv-x="720" 
d="M377 304h305v-104h-55q-8 -48 -30 -87.5t-57.5 -68t-84 -44t-109.5 -15.5q-71 0 -126.5 23.5t-93 64t-57 94t-19.5 113.5q0 57 20 110.5t58 94.5t93 65.5t125 24.5q58 0 106.5 -16.5t83.5 -44t55.5 -64.5t24.5 -79h-165q-5 28 -32 51t-72 23q-35 0 -62 -14t-45 -37.5
t-27 -53.5t-9 -62q0 -35 9.5 -65.5t28 -53t47 -36t67.5 -13.5q52 0 81 26.5t36 63.5h-96v104z" />
    <glyph glyph-name="two.003" horiz-adv-x="800" 
d="M400 -18q-87 0 -156 30.5t-117 81.5t-73 117.5t-25 138.5t25 138.5t73 117.5t117 81.5t156 30.5t155.5 -30.5t116.5 -81.5t73 -117.5t25 -138.5t-25 -138.5t-73 -117.5t-116.5 -81.5t-155.5 -30.5zM400 68q64 0 114.5 23.5t85.5 62.5t53.5 90t18.5 106t-18.5 106
t-53.5 90t-85.5 62.5t-114.5 23.5t-114.5 -23.5t-86 -62.5t-54 -90t-18.5 -106t18.5 -106t54 -90t86 -62.5t114.5 -23.5zM254 160q0 48 7.5 80.5t20.5 55t31.5 38t41.5 28.5q41 24 62.5 40t21.5 41q0 19 -10.5 27.5t-25.5 8.5q-18 0 -29 -11t-11 -39h-107q0 24 8.5 46.5
t26 40t45.5 28t67 10.5q27 0 52.5 -6.5t45 -20.5t31.5 -36.5t12 -53.5q0 -23 -8.5 -42t-22.5 -34t-31.5 -27.5t-35.5 -22.5q-19 -11 -32 -19.5t-21.5 -16t-12 -15t-3.5 -17.5h164v-83h-287z" />
    <glyph glyph-name="Umacron.smcp" horiz-adv-x="586" 
d="M443 653h-300v101h300v-101zM66 560h151v-365q0 -33 21 -57t55 -24t55.5 24t21.5 57v365h150v-367q0 -45 -15.5 -83t-45 -65.5t-71.5 -43.5t-95 -16t-95 16t-71.5 43.5t-45 65.5t-15.5 83v367z" />
    <glyph glyph-name="four.smcp" horiz-adv-x="569" 
d="M305 149h-232v411h145v-291h87v149h144v-149h64v-120h-64v-149h-144v149z" />
    <glyph glyph-name="Zcaron.smcp" horiz-adv-x="585" 
d="M144 708l66 76l91 -79l91 79l66 -76l-157 -132zM68 560h476l-265 -435h252v-125h-489l264 435h-238v125z" />
    <glyph glyph-name="zero.denominator" horiz-adv-x="413" 
d="M52 255q0 28 10.5 53.5t30.5 44.5t48.5 30t64.5 11t64.5 -11t49 -30t31.5 -44.5t11 -53.5v-125q0 -28 -11 -53.5t-31.5 -44.5t-49 -30t-64.5 -11t-64.5 11t-48.5 30t-30.5 44.5t-10.5 53.5v125zM255 255q0 21 -13 36.5t-36 15.5q-22 0 -34.5 -15.5t-12.5 -36.5v-125
q0 -21 12.5 -36.5t34.5 -15.5q23 0 36 15.5t13 36.5v125z" />
    <glyph glyph-name="Aogonek.smcp" horiz-adv-x="623" 
d="M546 -158q-17 -5 -35.5 -8.5t-42.5 -3.5q-55 0 -80.5 23t-25.5 55q0 26 16 47.5t48 44.5l-20 66h-193l-20 -66h-163l204 560h151l208 -560h-81q-17 -11 -31 -25t-14 -37q0 -17 9.5 -30t27.5 -13q9 0 21 2.5t23 7.5zM246 179h126l-62 216z" />
    <glyph glyph-name="Hbar.smcp" horiz-adv-x="628" 
d="M400 408h-171v-66h171v66zM229 560v-70h171v70h152v-560h-152v214h-171v-214h-151v560h151z" />
    <glyph glyph-name="Ydieresis.smcp" horiz-adv-x="584" 
d="M125 680q0 33 23.5 57t56.5 24q35 0 58.5 -24t23.5 -57q0 -32 -23.5 -55t-58.5 -23q-33 0 -56.5 23t-23.5 55zM323 680q0 33 23 57t58 24q34 0 57.5 -24t23.5 -57q0 -32 -23.5 -55t-57.5 -23q-35 0 -58 23t-23 55zM288 0h-169l100 203l-192 357h177l102 -208l92 208h168z
" />
    <glyph glyph-name="bracketright.smcp" horiz-adv-x="375" 
d="M65 -173v123h90v537h-90v124h233v-784h-233z" />
    <glyph glyph-name="Rcommaaccent.smcp" horiz-adv-x="597" 
d="M229 441v-174h77q37 0 58.5 26t21.5 61t-21.5 61t-57.5 26h-78zM78 560h255q47 0 85.5 -16.5t65.5 -45t41.5 -65.5t14.5 -79q0 -59 -27.5 -107t-78.5 -74l112 -173h-177l-90 148h-50v-148h-151v560zM228 -80q0 28 19.5 47.5t46.5 19.5q34 0 54.5 -23.5t20.5 -61.5
q0 -77 -37 -107.5t-101 -30.5v42q42 0 60 17t21 37q-1 -1 -7 -3.5t-11 -2.5q-31 0 -48.5 19.5t-17.5 46.5z" />
    <glyph glyph-name="ordfeminine.smcp" horiz-adv-x="577" 
d="M277 110q37 0 59.5 25.5t22.5 60.5t-22.5 61t-59.5 26q-36 0 -58.5 -26t-22.5 -61t22.5 -60.5t58.5 -25.5zM502 393v-393h-143v57q-12 -25 -45.5 -46t-74.5 -21t-75.5 15t-59 42.5t-38 65.5t-13.5 83t13.5 83t38 65.5t59 42.5t75.5 15t74.5 -20.5t45.5 -46.5v58h143z" />
    <glyph glyph-name="Ccaron.smcp" horiz-adv-x="690" 
d="M189 724l65 75l91 -78l91 78l66 -75l-157 -131zM642 212q-8 -47 -30.5 -88t-59 -72t-86.5 -49t-112 -18q-72 0 -128.5 24t-95.5 64.5t-59.5 94.5t-20.5 113q0 57 20.5 110.5t59 94t93.5 65t125 24.5q67 0 118.5 -19t88.5 -51.5t58.5 -76.5t27.5 -93h-158
q-8 44 -40.5 73.5t-88.5 29.5q-37 0 -65 -13t-47 -35t-28.5 -50t-9.5 -59q0 -33 10.5 -62t30 -50.5t48.5 -34t65 -12.5q48 0 81 26t43 64h160z" />
    <glyph glyph-name="five.003" horiz-adv-x="800" 
d="M400 -18q-87 0 -156 30.5t-117 81.5t-73 117.5t-25 138.5t25 138.5t73 117.5t117 81.5t156 30.5t155.5 -30.5t116.5 -81.5t73 -117.5t25 -138.5t-25 -138.5t-73 -117.5t-116.5 -81.5t-155.5 -30.5zM400 68q64 0 114.5 23.5t85.5 62.5t53.5 90t18.5 106t-18.5 106
t-53.5 90t-85.5 62.5t-114.5 23.5t-114.5 -23.5t-86 -62.5t-54 -90t-18.5 -106t18.5 -106t54 -90t86 -62.5t114.5 -23.5zM256 540h279v-78h-179v-72q11 16 31.5 24t43.5 8q33 0 56.5 -12t39 -30.5t23 -42t7.5 -47.5q0 -30 -10.5 -56t-30 -45.5t-48.5 -31t-66 -11.5
q-38 0 -67 11.5t-48.5 31t-30 45t-10.5 54.5h103q0 -23 14 -40t39 -17q24 0 38.5 17t14.5 42q0 22 -14 39t-39 17q-20 0 -30.5 -8t-18.5 -22h-97v224z" />
    <glyph glyph-name="Idieresis.smcp" horiz-adv-x="308" 
d="M-19 680q0 34 23.5 58t58.5 24t59 -24t24 -58q0 -32 -24 -56t-59 -24q-17 0 -32 6.5t-26 17.5t-17.5 25.5t-6.5 30.5zM179 680q0 34 23.5 58t58.5 24t59 -24t24 -58q0 -16 -6.5 -30.5t-18 -25.5t-26.5 -17.5t-32 -6.5t-32 6.5t-26 17.5t-17.5 25.5t-6.5 30.5zM78 560h152
v-560h-152v560z" />
    <glyph glyph-name="Eacute.smcp" horiz-adv-x="503" 
d="M156 588l-37 94l234 98l37 -94zM229 444v-110h202v-112h-202v-106h202v-116h-353v560h353v-116h-202z" />
    <glyph glyph-name="five.004" horiz-adv-x="800" 
d="M400 -18q-87 0 -156 30.5t-117 81.5t-73 117.5t-25 138.5t25 138.5t73 117.5t117 81.5t156 30.5t155.5 -30.5t116.5 -81.5t73 -117.5t25 -138.5t-25 -138.5t-73 -117.5t-116.5 -81.5t-155.5 -30.5zM353 316q8 14 18.5 22t30.5 8q25 0 39 -17t14 -39q0 -25 -14.5 -42
t-38.5 -17q-25 0 -39 17t-14 40h-103q0 -29 10.5 -54.5t30 -45t48.5 -31t67 -11.5q37 0 66 11.5t48.5 31t30 45.5t10.5 56q0 24 -7.5 47.5t-23 42t-39 30.5t-56.5 12q-23 0 -43.5 -8t-31.5 -24v72h179v78h-279v-224h97z" />
    <glyph glyph-name="eight.numerator" horiz-adv-x="410" 
d="M205 306q-74 0 -114 34.5t-40 83.5q0 33 20 58.5t46 32.5q-23 8 -39.5 31t-16.5 52q0 46 37.5 78.5t106.5 32.5t106.5 -32.5t37.5 -78.5q0 -29 -16 -52t-40 -31q26 -8 46 -33t20 -58q0 -24 -10.5 -45.5t-30 -37.5t-48 -25.5t-65.5 -9.5zM205 551q21 0 32.5 12.5
t11.5 29.5t-11.5 29.5t-32.5 12.5t-32.5 -12.5t-11.5 -29.5t11.5 -29.5t32.5 -12.5zM205 380q24 0 37.5 14.5t13.5 32.5q0 19 -13 33t-38 14t-38 -13.5t-13 -33.5q0 -19 13.5 -33t37.5 -14z" />
    <glyph glyph-name="Udieresis.001" horiz-adv-x="657" 
d="M432 740h-96l87 130h96zM295 740h-96l87 130h96zM56 700h162v-460q0 -24 8 -45.5t22.5 -37.5t34.5 -25.5t45 -9.5t45.5 9.5t35 25.5t22.5 37.5t8 45.5v460h162v-461q0 -54 -19 -101t-54.5 -81.5t-86 -54.5t-113.5 -20t-113 20t-85.5 54.5t-54.5 81.5t-19 101v461z" />
    <glyph glyph-name="Tcommaaccent.smcp" horiz-adv-x="473" 
d="M161 430h-120v130h391v-130h-120v-430h-151v430zM167 -80q0 28 19.5 47.5t46.5 19.5q34 0 54.5 -23.5t20.5 -61.5q0 -77 -36.5 -107.5t-101.5 -30.5v42q42 0 60 17t21 37q-1 -1 -7 -3.5t-11 -2.5q-31 0 -48.5 19.5t-17.5 46.5z" />
    <glyph glyph-name="plus.denominator" horiz-adv-x="410" 
d="M165 34v84h-82v77h82v84h80v-84h82v-77h-82v-84h-80z" />
    <glyph glyph-name="six.smcp" horiz-adv-x="568" 
d="M283 -11q-53 0 -94 16.5t-69 44t-43 65t-15 79.5q0 64 34 117l163 249h161l-110 -163h7q44 -4 79 -21.5t59 -45t36.5 -62.5t12.5 -74q0 -42 -15 -79.5t-43 -65t-69.5 -44t-93.5 -16.5zM283 107q38 0 60 25.5t22 61.5q0 37 -22 62.5t-60 25.5t-60 -25.5t-22 -62.5
q0 -36 22 -61.5t60 -25.5z" />
    <glyph glyph-name="four.denominator" horiz-adv-x="416" 
d="M222 100h-163v285h107v-197h56v100h106v-100h43v-88h-43v-100h-106v100z" />
    <glyph glyph-name="eight.smcp" horiz-adv-x="569" 
d="M280 -13q-52 0 -93 13.5t-69 37t-42.5 55t-14.5 66.5q0 24 7.5 45.5t20.5 39t30 30t36 17.5q-35 13 -57 46t-22 74q0 33 13.5 62.5t39.5 51.5t64 35t87 13t87 -13t64 -35t39.5 -51.5t13.5 -62.5q0 -41 -22 -74t-57 -46q19 -6 36 -18.5t29.5 -30t20 -39t7.5 -45.5
q0 -34 -14.5 -65t-42.5 -54.5t-68.5 -37.5t-92.5 -14zM280 340q32 0 50 19.5t18 45.5q0 25 -18 44.5t-50 19.5t-50.5 -19t-18.5 -45t18.5 -45.5t50.5 -19.5zM280 91q37 0 58 22t21 50t-20.5 50t-58.5 22t-58.5 -21.5t-20.5 -50.5t20.5 -50.5t58.5 -21.5z" />
    <glyph glyph-name="five.plf.smcp" horiz-adv-x="584" 
d="M86 560h395v-109h-261v-112q17 24 48 36t64 12q47 0 81.5 -17t57 -44t33.5 -61.5t11 -70.5q0 -42 -15 -80t-43 -66t-69.5 -44.5t-93.5 -16.5q-53 0 -94 16.5t-69 44.5t-43 65t-15 79h139q0 -36 22 -61.5t60 -25.5t60 26t22 63q0 35 -22 61.5t-60 26.5q-28 0 -46 -12
t-29 -35h-133v325z" />
    <glyph glyph-name="Ubreve.smcp" horiz-adv-x="586" 
d="M213 738q9 -21 27.5 -35.5t52.5 -14.5q33 0 52 15t28 35h108q-6 -35 -23 -62t-42 -45.5t-56.5 -28.5t-66.5 -10q-71 0 -122.5 38.5t-65.5 107.5h108zM66 560h151v-365q0 -33 21 -57t55 -24t55.5 24t21.5 57v365h150v-367q0 -45 -15.5 -83t-45 -65.5t-71.5 -43.5t-95 -16
t-95 16t-71.5 43.5t-45 65.5t-15.5 83v367z" />
    <glyph glyph-name="Ccircumflex.smcp" horiz-adv-x="690" 
d="M349 806l164 -131l-68 -75l-96 75l-95 -75l-69 75zM642 212q-8 -47 -30.5 -88t-59 -72t-86.5 -49t-112 -18q-72 0 -128.5 24t-95.5 64.5t-59.5 94.5t-20.5 113q0 57 20.5 110.5t59 94t93.5 65t125 24.5q67 0 118.5 -19t88.5 -51.5t58.5 -76.5t27.5 -93h-158
q-8 44 -40.5 73.5t-88.5 29.5q-37 0 -65 -13t-47 -35t-28.5 -50t-9.5 -59q0 -33 10.5 -62t30 -50.5t48.5 -34t65 -12.5q48 0 81 26t43 64h160z" />
    <glyph glyph-name="Lcaron.smcp" horiz-adv-x="427" 
d="M-4 718l65 75l91 -79l92 79l65 -75l-157 -132zM381 130v-130h-303v560h151v-430h152z" />
    <glyph glyph-name="parenleft.numerator" horiz-adv-x="283" 
d="M234 645q-34 0 -52.5 -22t-18.5 -53v-213q0 -30 18.5 -52t52.5 -22v-89q-41 0 -73 13t-54.5 35t-34.5 52t-12 63v213q0 33 12 63t34.5 52t54.5 35t73 13v-88z" />
    <glyph glyph-name="Aacute.smcp" horiz-adv-x="623" 
d="M213 580l-37 95l234 97l37 -94zM246 179h126l-62 216zM593 0h-167l-20 66h-193l-20 -66h-163l204 560h151z" />
    <glyph glyph-name="IJ.smcp" horiz-adv-x="796" 
d="M78 560h152v-560h-152v560zM726 199q0 -110 -58.5 -161.5t-159.5 -51.5q-55 0 -96 16.5t-68 45t-40 67.5t-13 84h151q0 -36 16.5 -60.5t49.5 -24.5q32 0 49 21.5t17 63.5v361h152v-361z" />
    <glyph glyph-name="five.smcp" horiz-adv-x="569" 
d="M77 560h394v-109h-260v-112q17 24 48 36t64 12q47 0 81.5 -17t57 -44t33.5 -61.5t11 -70.5q0 -42 -15 -80t-43.5 -66t-69.5 -44.5t-94 -16.5q-52 0 -93 16.5t-69.5 44.5t-43.5 65t-15 79h140q0 -36 21.5 -61.5t59.5 -25.5t60.5 26t22.5 63q0 35 -22 61.5t-60 26.5
q-53 0 -76 -47h-132v325z" />
    <glyph glyph-name="Edieresis.001" horiz-adv-x="555" 
d="M398 740h-97l87 130h97zM260 740h-96l87 130h96zM229 570v-159h265v-127h-265v-154h265v-130h-427v700h427v-130h-265z" />
    <glyph glyph-name="multiply.case.copy_1" 
d="M411 549l92 -92l-108 -108l106 -106l-87 -86l-105 105l-108 -108l-92 92l108 108l-105 105l86 87l105 -105z" />
    <glyph glyph-name="Cdotaccent.smcp" horiz-adv-x="690" 
d="M266 689q0 34 23.5 58t58.5 24t59 -24t24 -58q0 -32 -24 -56t-59 -24q-17 0 -32 6.5t-26 17.5t-17.5 25.5t-6.5 30.5zM642 212q-8 -47 -30.5 -88t-59 -72t-86.5 -49t-112 -18q-72 0 -128.5 24t-95.5 64.5t-59.5 94.5t-20.5 113q0 57 20.5 110.5t59 94t93.5 65t125 24.5
q67 0 118.5 -19t88.5 -51.5t58.5 -76.5t27.5 -93h-158q-8 44 -40.5 73.5t-88.5 29.5q-37 0 -65 -13t-47 -35t-28.5 -50t-9.5 -59q0 -33 10.5 -62t30 -50.5t48.5 -34t65 -12.5q48 0 81 26t43 64h160z" />
    </font>
</defs>
</svg>
